<?xml version="1.0" standalone="no"?>
<!DOCTYPE svg PUBLIC "-//W3C//DTD SVG 1.1//EN" "http://www.w3.org/Graphics/SVG/1.1/DTD/svg11.dtd" >
<svg xmlns="http://www.w3.org/2000/svg">
<metadata>
This is a custom SVG webfont generated by Font Squirrel.
Copyright   : Copyright  2009 ParaType Ltd All rights reserved
Designer    : AKorolkova OUmpeleva VYefimov
Foundry     : ParaType Ltd
Foundry URL : httpwwwparatypecom
</metadata>
<defs>
<font id="webfontb3pcLB5e" horiz-adv-x="1064" >
<font-face units-per-em="2048" ascent="1536" descent="-512" />
<missing-glyph horiz-adv-x="546" />
<glyph unicode=" "  horiz-adv-x="546" />
<glyph unicode="&#x09;" horiz-adv-x="546" />
<glyph unicode="&#xa0;" horiz-adv-x="546" />
<glyph unicode="!" horiz-adv-x="559" d="M178 94q0 55 33 87t86 32t86 -31.5t33 -87.5q0 -53 -33 -86t-86 -33t-86 33t-33 86zM295 362l41 361l149 711h164l-149 -711l-111 -361h-94z" />
<glyph unicode="&#x22;" horiz-adv-x="620" d="M389 1038l84 396h151l-143 -396h-92zM162 1038l84 396h151l-143 -396h-92z" />
<glyph unicode="#" d="M131 461l29 131h164l63 268h-154l29 131h156l78 324h139l-78 -324h217l78 324h139l-78 -324h158l-33 -131h-155l-64 -268h150l-33 -131h-150l-79 -342h-140l80 342h-217l-80 -342h-139l80 342h-160zM463 592h217l63 268h-217z" />
<glyph unicode="$" d="M125 104l72 125q33 -23 95 -57.5t144 -48.5l123 575q-45 33 -89 70t-78 80t-55.5 97t-21.5 124q0 90 30 158.5t84 117t128 76t162 33.5l41 184h131l-39 -182q88 -8 150.5 -30.5t105.5 -45.5l-70 -129q-35 16 -90 34t-127 26l-110 -514q47 -35 93 -74t82 -88t58.5 -111.5 t22.5 -144.5q0 -84 -29 -154.5t-84 -123t-136 -85t-183 -39.5q0 -2 -6.5 -29.5t-12.5 -62.5l-18 -90h-131l39 187q-98 14 -172 52.5t-109 69.5zM483 1094q0 -78 41 -132.5t101 -101.5l96 453q-117 -8 -177.5 -68.5t-60.5 -150.5zM535 119q123 8 193.5 73.5t70.5 172.5 q0 92 -45 154.5t-109 115.5z" />
<glyph unicode="%" horiz-adv-x="1507" d="M123 1004q0 119 36 204.5t91 141t122.5 82t133.5 26.5q117 0 177 -63.5t60 -180.5q0 -111 -30.5 -194.5t-82.5 -141t-123 -87t-149 -29.5q-104 0 -169.5 63.5t-65.5 178.5zM264 1020q0 -66 30 -102.5t89 -36.5q43 0 83 22.5t70.5 64.5t48 102t17.5 136q0 72 -31.5 102.5 t-89.5 30.5q-43 0 -83 -25.5t-69.5 -68.5t-47 -101t-17.5 -124zM791 244q0 119 36 204.5t91 141t122.5 82t133.5 26.5q117 0 177 -63.5t60 -180.5q0 -111 -30.5 -194.5t-82.5 -141t-123 -87t-149 -29.5q-104 0 -169.5 63.5t-65.5 178.5zM932 260q0 -66 30 -102.5t89 -36.5 q43 0 83 22.5t70.5 64.5t48 102t17.5 136q0 72 -31.5 102.5t-89.5 30.5q-43 0 -83 -25.5t-69.5 -68.5t-47 -101t-17.5 -124zM1231 1460l102 -80l-1051 -1405l-102 80z" />
<glyph unicode="&#x26;" horiz-adv-x="1581" d="M178 303q0 96 40 184t103.5 164t143.5 136.5t160 101.5l-24.5 66.5t-18 59t-10.5 61.5t-3 73q0 55 20.5 110.5t63.5 99.5t107.5 71.5t154.5 27.5q72 0 116 -19.5t68.5 -48t33 -63.5t8.5 -65q0 -117 -89 -216.5t-243 -183.5q20 -59 48 -121.5t60.5 -124t69.5 -122 t74 -111.5q27 25 56.5 62.5t58 79.5t55.5 87l49 86l109 -59q-18 -35 -52 -83l-69 -98l-74 -97q-37 -46 -66 -76q66 -82 112 -125t97 -76l-118 -115q-47 27 -100.5 78t-104.5 119q-43 -37 -92.5 -71t-106.5 -60.5t-123.5 -43t-142.5 -16.5q-86 0 -154.5 25t-117 69t-74 103 t-25.5 131zM342 338q0 -111 67.5 -166t190.5 -55q49 0 98.5 13t94.5 34.5t82.5 48.5t66.5 55q-43 59 -83 129t-74.5 139.5t-62.5 134t-46 113.5q-74 -47 -135.5 -100t-105.5 -109.5t-68.5 -116t-24.5 -120.5zM723 1153q0 -31 2 -55.5t7 -46t12.5 -44t19.5 -53.5 q117 70 175 133.5t58 141.5q0 41 -23.5 69.5t-80.5 28.5q-47 0 -79 -14.5t-52.5 -40t-29.5 -57t-9 -62.5z" />
<glyph unicode="'" horiz-adv-x="413" d="M209 1038l84 396h151l-143 -396h-92z" />
<glyph unicode="(" horiz-adv-x="544" d="M111 150q0 211 47 401t127 356t184 304.5t219 242.5l76 -72q-115 -127 -206 -269t-156.5 -295.5t-98.5 -316.5t-33 -327q0 -131 28 -270.5t93 -278.5l-94 -71q-111 162 -148.5 312.5t-37.5 283.5z" />
<glyph unicode=")" horiz-adv-x="544" d="M-195 -375q100 104 187.5 243.5t155 294t106.5 319.5t39 323q0 197 -25.5 334t-89.5 247l103 68q47 -66 79.5 -141.5t53 -153.5t30 -154.5t9.5 -142.5q0 -209 -46.5 -400.5t-125 -358t-182 -306t-216.5 -243.5z" />
<glyph unicode="*" horiz-adv-x="681" d="M145 1133v114h103l129 -24l-92 90l-56 94l101 57l51 -86l37 -114l43 116l49 82l98 -53l-51 -88l-96 -98l139 24h98v-114h-92l-133 24l94 -98l49 -80l-98 -57l-51 86l-49 125l-37 -119l-51 -86l-103 57l54 86l88 86l-121 -24h-103z" />
<glyph unicode="+" horiz-adv-x="983" d="M113 618v148h360v371h148v-371h360v-148h-360v-370h-148v370h-360z" />
<glyph unicode="," horiz-adv-x="380" d="M-43 -225q78 29 125 90t57 121q-8 -4 -20 -4q-29 0 -56.5 24.5t-27.5 65.5q0 53 34.5 90t100.5 37q51 0 78.5 -35t27.5 -80q0 -63 -21.5 -123.5t-60 -112t-91 -91.5t-113.5 -62z" />
<glyph unicode="-" horiz-adv-x="700" d="M129 520l33 139h471l-35 -139h-469z" />
<glyph unicode="." horiz-adv-x="432" d="M72 94q0 55 32.5 87t85.5 32t86 -31.5t33 -87.5q0 -53 -32.5 -86t-86.5 -33q-53 0 -85.5 33t-32.5 86z" />
<glyph unicode="/" horiz-adv-x="688" d="M-190 -229l1067 1687l116 -63l-1067 -1690z" />
<glyph unicode="0" d="M117 449q0 215 46 400t127 320.5t193.5 212t247.5 76.5q174 0 268.5 -112.5t94.5 -358.5q0 -184 -40 -364.5t-117 -324.5t-189.5 -233.5t-260.5 -89.5q-104 0 -174.5 40t-114.5 106.5t-62.5 152t-18.5 175.5zM276 457q0 -104 20.5 -171t54.5 -103t76 -50t85 -14 q92 0 170 72.5t133 193.5t87 272.5t32 309.5q0 176 -49 262t-178 86q-82 0 -159 -63.5t-137.5 -178.5t-97.5 -272.5t-37 -343.5z" />
<glyph unicode="1" d="M129 0l31 152h272l213 991l45 121l-100 -97l-246 -161l-57 104l506 348h69l-278 -1306h266l-31 -152h-690z" />
<glyph unicode="2" d="M66 0l12 59l132 128l172 170l183 196q92 102 167 205.5t119 200t44 178.5q0 39 -8 71.5t-26.5 56t-53.5 37t-90 13.5q-74 0 -143.5 -30t-147.5 -81l-43 123q98 72 188.5 101.5t196.5 29.5q143 0 215 -81t72 -208q0 -106 -59.5 -231t-150.5 -251t-199.5 -245.5 t-209.5 -216.5l-112 -88v-8l127 23h419l-28 -152h-776z" />
<glyph unicode="3" d="M88 27l74 145q41 -23 98 -38t133 -15q96 0 169 30.5t119 81t70.5 115t24.5 131.5q0 106 -53 163.5t-199 57.5h-147l12 60l373 454l106 91l-129 -21h-379l29 152h696l-12 -60l-411 -495l-80 -60v-4l67 14q57 0 108.5 -19t91.5 -59t63.5 -101.5t23.5 -147.5 q0 -111 -36 -206t-106.5 -167t-177 -113t-247.5 -41q-88 0 -159 14.5t-122 37.5z" />
<glyph unicode="4" d="M70 440l14 68l850 948h104l-186 -876h229l-28 -140h-232l-92 -440h-149l92 440h-602zM283 565l137 15h282l97 450l55 168h-8l-96 -139l-355 -391z" />
<glyph unicode="5" d="M96 23l70 141q43 -18 91 -31.5t124 -13.5q92 0 164.5 29.5t124 82t78 122t24.5 153.5q2 117 -62.5 174t-211.5 57l-164 -10l149 707h607l-33 -152h-461l-88 -410h14q12 0 29 2q18 0 39 3q96 0 161.5 -30t105.5 -77t57.5 -109.5t17.5 -125.5q0 -158 -51.5 -265.5 t-134 -173t-186 -93.5t-210.5 -28q-82 0 -144.5 12.5t-109.5 35.5z" />
<glyph unicode="6" d="M129 418q0 205 78 387t203 320.5t282.5 226.5t317.5 106l8 -131q-113 -18 -223.5 -74.5t-203.5 -139.5t-165 -186.5t-109 -215.5q20 27 55.5 52t79.5 45.5t94 32t103 11.5q147 0 243.5 -89t96.5 -263q0 -115 -33.5 -210t-98 -166t-156 -110t-203.5 -39q-68 0 -133.5 24 t-117.5 76t-85 136t-33 207zM283 434q0 -68 13 -126t42 -101t72 -67.5t104 -24.5q82 0 141.5 31.5t97.5 83t55 117t17 132.5q0 102 -51 168t-168 66q-47 0 -93 -13.5t-88 -36t-76 -52t-54 -62.5q-4 -27 -8 -58.5t-4 -56.5z" />
<glyph unicode="7" d="M141 0l742 1200l106 100l-119 -18h-542l30 152h813l-10 -56l-852 -1378h-168z" />
<glyph unicode="8" d="M125 299q0 141 93 261t263 192q-33 27 -62.5 54.5t-53 63t-38 82.5t-14.5 115q0 94 36 167t96.5 123t140.5 75.5t166 25.5q68 0 127 -19.5t102 -57.5t67.5 -94t24.5 -130q0 -61 -23.5 -121.5t-65.5 -114t-98.5 -99.5t-123.5 -83q37 -31 70.5 -64.5t58 -73.5t40 -88 t15.5 -107q0 -86 -27.5 -164t-86 -137.5t-149.5 -94.5t-220 -35q-84 0 -146.5 26t-105.5 69t-64.5 102t-21.5 127zM285 317q0 -37 10 -73.5t33.5 -64t65.5 -44t104 -16.5q57 0 109 15.5t93 48t63.5 80.5t22.5 112q0 57 -15 101t-39.5 80t-63.5 66.5t-84 59.5 q-135 -63 -217 -155.5t-82 -209.5zM473 1075q0 -98 49 -158.5t135 -113.5q51 33 98.5 72.5t81 81.5t55 85t21.5 86q0 96 -47 141.5t-133 45.5q-53 0 -100 -15.5t-82 -46t-56.5 -76t-21.5 -102.5z" />
<glyph unicode="9" d="M190 106q129 29 239 84.5t198 132t151.5 172t100.5 203.5q-66 -57 -144 -86.5t-196 -29.5q-55 0 -111.5 20.5t-104 65.5t-77 116.5t-29.5 171.5q0 119 37 212.5t103.5 158t155.5 98t194 33.5q76 0 143.5 -27.5t118.5 -83t79.5 -136.5t28.5 -187q0 -236 -83 -423 t-212 -321.5t-284.5 -212t-298.5 -92.5zM377 975q0 -74 22.5 -123t54 -78t69.5 -41t75 -12q94 0 179 37t130 90q2 12 5 35l7 45q3 23 4 44t1 32q0 143 -61.5 229t-182.5 86q-59 0 -113.5 -20.5t-95.5 -63.5t-67.5 -107.5t-26.5 -152.5z" />
<glyph unicode=":" horiz-adv-x="546" d="M182 94q0 55 33 87t86 32t86 -31.5t33 -87.5q0 -53 -33 -86t-86 -33t-86 33t-33 86zM354 920q0 55 33 86.5t86 31.5t86 -31.5t33 -86.5q0 -53 -33 -86t-86 -33t-86 33t-33 86z" />
<glyph unicode=";" horiz-adv-x="559" d="M111 -225q78 29 125 90t57 121q-8 -4 -21 -4q-29 0 -56.5 24.5t-27.5 65.5q0 53 35 90t101 37q51 0 78.5 -35t27.5 -80q0 -63 -21.5 -123.5t-60.5 -112t-91 -91.5t-114 -62zM367 920q0 55 32.5 86.5t85.5 31.5t86 -31.5t33 -86.5q0 -53 -32.5 -86t-86.5 -33 q-53 0 -85.5 33t-32.5 86z" />
<glyph unicode="&#x3c;" horiz-adv-x="983" d="M111 625v59l776 473l78 -127l-486 -297l-186 -78l184 -65l498 -295l-78 -123z" />
<glyph unicode="=" horiz-adv-x="983" d="M113 449v147h868v-147h-868zM113 788v148h868v-148h-868z" />
<glyph unicode="&#x3e;" horiz-adv-x="983" d="M115 1032l78 125l786 -452v-60l-776 -473l-78 125l485 297l187 78l-185 65z" />
<glyph unicode="?" horiz-adv-x="847" d="M164 94q0 55 32.5 87t86.5 32q53 0 85.5 -31.5t32.5 -87.5q0 -53 -32.5 -86t-85.5 -33t-86 33t-33 86zM244 1356q41 25 78.5 43t80.5 31.5t93.5 20.5t115.5 7q152 0 223.5 -69.5t71.5 -180.5t-34.5 -191.5t-88 -144t-118 -118t-123 -111.5t-103.5 -123.5t-59 -157.5h-129 q10 102 51 179t95.5 139.5t115.5 117t111.5 109t84 116.5t33.5 142q0 78 -42 120t-146 42q-72 0 -142.5 -27.5t-129.5 -62.5z" />
<glyph unicode="@" horiz-adv-x="2179" d="M238 483q0 223 76.5 403.5t207.5 307.5t305 195.5t369 68.5q184 0 342 -54t274.5 -155.5t182 -248t65.5 -332.5q0 -131 -45 -251t-121.5 -210t-179 -144.5t-217.5 -54.5q-86 0 -136 37t-50 137q0 18 2 40t6 46h-8q-31 -47 -70 -93t-87 -83t-102.5 -60.5t-113.5 -23.5 q-49 0 -93 21.5t-77 62.5t-52.5 97.5t-19.5 127.5q0 131 43 258t116 225.5t170 159t206 60.5q74 0 120 -22.5t89 -55.5l67 64h70l-104 -588q-10 -53 -15.5 -95t-5.5 -75q0 -51 17.5 -76t62.5 -25q70 0 137.5 37t121.5 104.5t88 164t34 215.5q0 158 -53.5 278.5t-149.5 203.5 t-229 126t-293 43q-168 0 -313.5 -61.5t-254 -170t-171 -260t-62.5 -329.5q0 -182 56.5 -325.5t161 -242t249.5 -149.5t324 -51q59 0 135 14t137 43l41 -131q-90 -39 -169 -52.5t-169 -13.5q-190 0 -356 57.5t-291 170t-196.5 279.5t-71.5 386zM854 344q0 -80 33 -138.5 t119 -58.5q41 0 85 29t87 75t82.5 103.5t70.5 116.5l62 334q-35 41 -71 58.5t-89 17.5q-80 0 -149.5 -49.5t-120 -126t-80 -173t-29.5 -188.5z" />
<glyph unicode="A" horiz-adv-x="1140" d="M-68 0l828 1456h76l206 -1456h-157l-58 397h-499l-222 -397h-174zM408 545h403l-59 436l-4 217h-3l-92 -221z" />
<glyph unicode="B" horiz-adv-x="1138" d="M82 10l299 1411q78 12 175 20.5t210 8.5q76 0 145.5 -19.5t121.5 -58.5t84 -100.5t32 -143.5q0 -80 -24.5 -145t-69.5 -114.5t-105.5 -79t-130.5 -39.5v-9q45 -10 86 -33.5t72 -58.5t49 -81t18 -101q0 -143 -56 -236.5t-143 -148.5t-194.5 -76.5t-212.5 -21.5h-79 q-46 0 -117 4q-123 12 -160 22zM272 145q12 -4 38 -6t55.5 -4t61.5 -3t56 -1q72 0 141.5 17.5t125 54.5t89 96t33.5 145q0 63 -30.5 105.5t-79.5 67t-111.5 33.5t-126.5 9h-143zM410 799h108q35 0 82 1t80 5q47 10 100.5 28.5t97.5 52.5t71.5 86t27.5 130q0 57 -17.5 95 t-51.5 61.5t-81 34t-104 10.5q-66 0 -123 -3.5t-86 -9.5z" />
<glyph unicode="C" horiz-adv-x="1114" d="M145 561q0 231 68 400t178.5 280t248.5 164t280 53q117 0 190.5 -16.5t120.5 -38.5l-74 -150q-41 23 -107.5 38.5t-152.5 15.5q-115 0 -220.5 -50.5t-185 -144.5t-127 -229t-47.5 -303q0 -98 26 -181.5t74 -143.5t118.5 -94t160.5 -34q96 0 160 21.5t115 50.5l12 -140 q-70 -47 -147.5 -65.5t-180.5 -18.5q-121 0 -215 44t-159.5 123t-100.5 185.5t-35 233.5z" />
<glyph unicode="D" horiz-adv-x="1273" d="M82 -2l305 1436q78 10 176.5 13t177.5 3q121 0 219.5 -32t167 -97.5t105.5 -165.5t37 -235q0 -90 -16.5 -196t-54.5 -209t-101.5 -199.5t-157.5 -171t-221 -118.5t-293 -44q-31 0 -81 1t-99 3q-144 8 -164 12zM276 141q8 -2 33 -3l52 -2l54 -2q26 -1 36 -1 q178 0 300.5 74t199.5 186.5t112 247.5t35 256q0 92 -20.5 166t-64.5 126t-114 80.5t-170 28.5q-25 0 -55 -1l-60 -2q-29 -1 -55.5 -3t-40.5 -4z" />
<glyph unicode="E" horiz-adv-x="1044" d="M82 0l305 1434h739l-30 -152h-580l-100 -469h530l-31 -151h-530l-109 -510h590l-32 -152h-590h-162z" />
<glyph unicode="F" horiz-adv-x="1007" d="M82 0l305 1434h739l-30 -152h-580l-104 -489h540l-30 -152h-541l-135 -641h-164z" />
<glyph unicode="G" horiz-adv-x="1193" d="M145 557q0 252 74 424t189.5 277.5t255 152.5t270.5 47q117 0 193.5 -15.5t123.5 -37.5l-71 -150q-41 23 -110 37.5t-155 14.5q-119 0 -226 -46.5t-190 -138.5t-132.5 -228t-49.5 -316q0 -92 22.5 -174t69 -143.5t115 -97.5t162.5 -36q66 0 113 13.5t94 37.5l84 400 l-229 40l20 97h238h139l-133 -631q-145 -109 -361 -109q-102 0 -193 37t-161 110t-111 181.5t-41 253.5z" />
<glyph unicode="H" horiz-adv-x="1308" d="M82 0l303 1434h164l-131 -625h649l131 625h164l-303 -1434h-164l139 657h-651l-137 -657h-164z" />
<glyph unicode="I" horiz-adv-x="567" d="M127 0l303 1434h164l-303 -1434h-164z" />
<glyph unicode="J" horiz-adv-x="569" d="M-125 12l62 146q39 -27 110 -27q43 0 71.5 15.5t49 45t34 70.5t23.5 94l230 1078h163l-237 -1119q-18 -82 -44 -144t-66 -105t-98 -64.5t-140 -21.5q-16 0 -38 2t-44.5 6t-43 10t-32.5 14z" />
<glyph unicode="K" horiz-adv-x="1179" d="M82 0l303 1434h164l-143 -668l81 29l588 639h203l-586 -623l-94 -63l80 -82l358 -666h-186l-361 664h-104l-139 -664h-164z" />
<glyph unicode="L" horiz-adv-x="1007" d="M82 0l303 1434h164l-273 -1282h644l-31 -152h-647h-160z" />
<glyph unicode="M" horiz-adv-x="1544" d="M82 0l305 1434h113l266 -734l31 -159h2l94 164l559 729h145l-305 -1434h-164l205 963l64 215h-8l-115 -197l-492 -647h-49l-235 647l-31 197h-8l-17 -213l-204 -965h-156z" />
<glyph unicode="N" horiz-adv-x="1314" d="M82 0l309 1456h82l447 -958l67 -201h8l19 201l200 936h154l-309 -1457h-76l-448 961l-70 211h-6l-25 -211l-198 -938h-154z" />
<glyph unicode="O" horiz-adv-x="1333" d="M145 524q0 188 51.5 358.5t146.5 298.5t229.5 202.5t297.5 74.5q98 0 182.5 -29.5t144.5 -94t94 -167t34 -249.5q0 -193 -51 -364t-143.5 -300t-220.5 -204t-281 -75q-242 0 -363 140.5t-121 408.5zM317 526q0 -193 80 -298t236 -105q115 0 210 63.5t164.5 172t107.5 252 t38 302.5q0 119 -26.5 197t-70.5 122t-100.5 61.5t-113.5 17.5q-117 0 -213.5 -64.5t-165 -173t-107.5 -251t-39 -296.5z" />
<glyph unicode="P" horiz-adv-x="1089" d="M82 0l301 1419q78 18 164 24.5t170 6.5q94 0 175 -20.5t140.5 -65.5t93 -115.5t33.5 -169.5q0 -156 -56 -260t-147.5 -166.5t-206 -89t-231.5 -26.5h-32q-22 0 -46 1t-46.5 3t-33.5 4l-114 -545h-164zM393 694q8 -4 27.5 -5t41 -3t42.5 -2h31q88 0 169.5 18.5t144 63.5 t100.5 116.5t38 180.5q0 74 -24.5 121t-66.5 72.5t-97.5 36t-116.5 10.5q-47 0 -91 -3.5t-73 -9.5z" />
<glyph unicode="Q" horiz-adv-x="1333" d="M145 524q0 188 51.5 358.5t146.5 298.5t229.5 202.5t297.5 74.5q98 0 182.5 -29.5t144.5 -94t94 -167t34 -249.5q0 -193 -51 -364t-143.5 -300t-220.5 -204t-281 -75q-242 0 -363 140.5t-121 408.5zM317 526q0 -193 80 -298t236 -105q115 0 210 63.5t164.5 172t107.5 252 t38 302.5q0 119 -26.5 197t-70.5 122t-100.5 61.5t-113.5 17.5q-117 0 -213.5 -64.5t-165 -173t-107.5 -251t-39 -296.5zM360 -250l31 150q55 12 109 12q82 0 157 -22l155 -46q79 -25 163 -46t180 -21q84 0 174 20l-33 -147q-49 -14 -95 -19.5t-91 -5.5q-98 0 -186 21.5 t-169 46.5l-156 46q-75 22 -146 21q-23 0 -46.5 -2t-46.5 -8z" />
<glyph unicode="R" horiz-adv-x="1163" d="M82 0l301 1419q86 16 166 23.5t160 7.5q78 0 151.5 -19.5t130 -61.5t90 -109.5t33.5 -163.5q0 -180 -105.5 -300t-306.5 -155l74 -74l221 -567h-178l-246 618l-192 31l-135 -649h-164zM406 762h141q74 0 144.5 14.5t126.5 51t90 100t34 159.5q0 37 -14.5 75t-43 70 t-75.5 51.5t-111 19.5q-49 0 -98 -3.5t-82 -9.5z" />
<glyph unicode="S" horiz-adv-x="1034" d="M35 51l84 150q47 -27 128 -52.5t191 -25.5q63 0 127 11t115 40t83 76t32 119q0 74 -38 125t-95.5 93t-124 81t-124 90t-95 120.5t-37.5 172.5q0 109 39.5 186.5t108.5 126.5t162 71.5t197 22.5q119 0 213.5 -18.5t147.5 -46.5l-82 -146q-41 23 -122 43.5t-187 20.5 q-135 0 -220 -61.5t-85 -178.5q0 -76 37.5 -128t95 -94t124 -81t124 -89t95.5 -120t38 -170q0 -199 -143.5 -306.5t-411.5 -107.5q-137 0 -232.5 23.5t-144.5 52.5z" />
<glyph unicode="T" horiz-adv-x="1081" d="M225 1282l31 152h1008l-31 -152h-424l-270 -1282h-164l270 1282h-420z" />
<glyph unicode="U" horiz-adv-x="1265" d="M178 338q0 84 23 190l190 906h164l-190 -908q-23 -90 -23 -164q0 -129 67.5 -179t200.5 -50q80 0 140.5 22.5t104.5 69.5t73.5 121t52.5 178l193 910h155l-201 -957q-29 -131 -71.5 -225t-107 -153.5t-154.5 -88t-209 -28.5q-113 0 -191 25.5t-126 71.5t-69.5 112.5 t-21.5 146.5z" />
<glyph unicode="V" horiz-adv-x="1107" d="M213 1434h168l137 -981v-220h4l92 224l543 977h176l-823 -1457h-76z" />
<glyph unicode="W" horiz-adv-x="1613" d="M233 1434h168l37 -957l-18 -237h2l80 241l481 953h88l76 -957l-19 -237h2l82 241l437 953h168l-689 -1457h-90l-77 961l12 217h-8l-82 -219l-480 -959h-90z" />
<glyph unicode="X" horiz-adv-x="1204" d="M-14 0l606 733l-266 701h178l176 -486l25 -117l69 117l391 486h199l-571 -695l290 -739h-178l-196 514l-29 123l-78 -123l-418 -514h-198z" />
<glyph unicode="Y" horiz-adv-x="1087" d="M221 1434h178l183 -627l6 -125h2l61 129l445 623h184l-623 -863l-120 -571h-164l121 569z" />
<glyph unicode="Z" d="M-2 0l31 154l891 1046l100 82h-750l31 152h916l-31 -154l-897 -1053l-96 -75h751l-31 -152h-915z" />
<glyph unicode="[" horiz-adv-x="595" d="M33 -471l403 1905h156h199l-31 -144h-199l-344 -1618h201l-31 -143h-201h-153z" />
<glyph unicode="\" horiz-adv-x="778" d="M84 1401l141 57l695 -1685l-136 -60z" />
<glyph unicode="]" horiz-adv-x="600" d="M-129 -471l31 143h196l342 1618h-198l30 144h203h152l-404 -1905h-153h-199z" />
<glyph unicode="^" horiz-adv-x="1024" d="M209 891l381 565h59l346 -565h-170l-161 276l-48 142l-63 -144l-191 -274h-153z" />
<glyph unicode="_" horiz-adv-x="835" d="M-90 -281h835v-139h-835v139z" />
<glyph unicode="`" horiz-adv-x="487" d="M602 1432l8 43h187l59 -306h-88z" />
<glyph unicode="a" horiz-adv-x="997" d="M92 293q0 131 34 266t104.5 243.5t182 178.5t269.5 70q57 0 140 -13.5t155 -36.5l-129 -598q-16 -76 -22.5 -153.5t-6.5 -145.5v-58q0 -28 4 -50h-114l-29 178h-8q-25 -35 -61 -70.5t-79 -64.5t-92 -46.5t-104 -17.5q-244 1 -244 318zM256 293q0 -78 30.5 -132.5 t96.5 -54.5q49 0 94 24t85 58.5t71 74.5t49 75l115 553q-61 29 -156 29q-94 0 -166 -55.5t-121 -144.5t-73.5 -201.5t-24.5 -225.5z" />
<glyph unicode="b" horiz-adv-x="1067" d="M88 63l291 1371h153l-124 -586h8q29 37 65.5 72.5t81.5 64.5t96.5 46.5t110.5 17.5q121 0 176 -85t55 -214q0 -184 -51 -326.5t-135 -241t-191.5 -149.5t-220.5 -51q-111 0 -193.5 24t-121.5 57zM260 156q61 -43 174 -43q66 0 137.5 40t131 116.5t97.5 188t38 255.5 q0 104 -32 154.5t-85 50.5q-51 0 -104.5 -26t-101.5 -67t-88 -91t-65 -97z" />
<glyph unicode="c" horiz-adv-x="860" d="M102 303q0 174 47.5 312.5t126 234.5t181 147.5t211.5 51.5q78 0 128 -14.5t91 -33.5l-58 -127q-35 20 -86 32t-110 12q-70 0 -136.5 -47.5t-117.5 -124t-82 -176t-31 -203.5q0 -133 55.5 -197t149.5 -64q61 0 129 28t109 56l39 -102q-31 -27 -71 -47.5t-82 -34.5 t-83 -22.5t-78 -8.5q-100 0 -164.5 32t-101.5 81t-51.5 106.5t-14.5 108.5z" />
<glyph unicode="d" horiz-adv-x="1042" d="M102 322q0 121 35 248.5t102.5 232t169 172t234.5 67.5q37 0 63.5 -2t50 -6t44.5 -11l43 -15l90 426h153l-229 -1082q-16 -80 -24.5 -149.5t-8.5 -128.5q0 -23 1 -41.5t3 -36.5h-102l-29 178h-8q-25 -35 -61.5 -70.5t-81.5 -64.5t-95.5 -46.5t-103.5 -17.5 q-113 0 -179.5 83.5t-66.5 263.5zM266 311q0 -84 33 -144.5t107 -60.5q43 0 88 24t84.5 58.5t71.5 74.5t50 75l115 532q-35 23 -79 32t-115 9q-82 0 -147.5 -50t-112 -134t-71 -192.5t-24.5 -223.5z" />
<glyph unicode="e" horiz-adv-x="948" d="M102 332q0 168 47.5 301t124 225t174 141.5t199.5 49.5q74 0 128 -20.5t89 -54.5t51.5 -78t16.5 -93q0 -145 -141.5 -228t-411.5 -83q-25 0 -51.5 1t-55.5 3q-8 -39 -12 -74t-4 -62q0 -113 51 -183.5t160 -70.5q90 0 165 30t116 63l49 -99q-72 -61 -169.5 -93t-195.5 -32 q-164 0 -247 94.5t-83 262.5zM301 610q78 0 162 4t152.5 21.5t113.5 55.5t45 106q0 20 -7 41.5t-23.5 39t-46 29t-74.5 11.5q-113 0 -196 -77t-126 -231z" />
<glyph unicode="f" horiz-adv-x="569" d="M-233 -385l45 115q41 -14 74.5 -19.5t82.5 -5.5q78 0 117 75t66 236l143 877h-158l27 131h149l27 137q14 76 34.5 131.5t54.5 92t84 55t122 18.5q68 0 131 -13t115 -36l-45 -121q-100 39 -191 39q-76 0 -110.5 -52t-53.5 -167l-14 -84h207l-25 -131h-200l-164 -963 q-12 -76 -34 -140t-56.5 -112.5t-88 -76t-129.5 -27.5q-61 0 -113 9t-97 32z" />
<glyph unicode="g" horiz-adv-x="1034" d="M10 -342l68 115q16 -8 39.5 -21.5t57.5 -26t82 -20.5t114 -8q102 0 171.5 73.5t104.5 231.5l37 172h-8q-29 -39 -62.5 -73.5t-74.5 -62.5t-89.5 -44.5t-105.5 -16.5q-111 0 -178.5 80t-67.5 228q0 137 38 272t113 242.5t184.5 175t252.5 67.5q111 0 186.5 -18t133.5 -45 l-218 -1026q-43 -201 -148 -294t-280 -93q-133 0 -219 33.5t-131 58.5zM262 311q0 -94 38 -148t101 -54q51 0 101.5 26.5t92.5 68.5t76 91t56 92l104 494q-33 18 -79.5 24t-96.5 6q-84 0 -155.5 -49t-123.5 -132t-83 -191.5t-31 -227.5z" />
<glyph unicode="h" horiz-adv-x="1083" d="M74 0l303 1434h153l-127 -586h9q27 33 64.5 67.5t86.5 64.5t106.5 49.5t125.5 19.5q100 0 157.5 -48.5t57.5 -175.5q0 -86 -27 -207l-131 -618h-154l123 584q12 61 20.5 109t8.5 85q0 76 -31 108t-96 32q-53 0 -108.5 -28t-106.5 -71t-91 -96t-61 -102l-129 -621h-153z " />
<glyph unicode="i" horiz-adv-x="530" d="M111 0l217 1024h153l-217 -1024h-153zM360 1337q0 47 32 80t79 33t80 -33t33 -80t-33 -78.5t-80 -31.5t-79 31.5t-32 78.5z" />
<glyph unicode="j" horiz-adv-x="509" d="M-197 -422l31 133q61 0 101 17.5t68 54.5t47.5 92t35.5 131l217 1018h154l-230 -1079q-41 -190 -127 -280.5t-233 -90.5q-16 0 -32 1t-32 3zM336 1337q0 47 31.5 80t78.5 33t80 -33t33 -80t-32.5 -78.5t-80.5 -31.5q-47 0 -78.5 31.5t-31.5 78.5z" />
<glyph unicode="k" horiz-adv-x="919" d="M74 0l303 1434h153l-186 -873l88 23l369 440h188l-364 -416l-97 -67l78 -80l230 -461h-170l-232 461h-110l-97 -461h-153z" />
<glyph unicode="l" horiz-adv-x="552" d="M102 135q0 41 13 101l254 1198h153l-250 -1190q-6 -35 -6 -58q0 -39 13.5 -56t35.5 -17q41 0 69 5t67 19v-117q-18 -10 -43 -17t-50.5 -11t-51 -7t-46.5 -3q-72 0 -115 32.5t-43 120.5z" />
<glyph unicode="m" horiz-adv-x="1562" d="M74 0l217 1024h108l-12 -176h8l71 68q38 36 84 65t100.5 48.5t119.5 19.5q92 0 124 -57.5t32 -160.5q31 39 71.5 78t89 70t101.5 50.5t106 19.5q94 0 144.5 -44t50.5 -163q0 -86 -31 -228l-129 -614h-153l129 616q12 59 19 106.5t7 82.5q0 55 -22.5 84t-75.5 29 q-43 0 -91 -28t-93 -69t-81 -88t-57 -88l-133 -645h-153l123 580q16 72 24 127t8 96q0 55 -20.5 85t-69.5 30q-51 0 -100 -27t-92 -67t-79 -85t-57 -82l-135 -657h-153z" />
<glyph unicode="n" horiz-adv-x="1069" d="M74 0l217 1024h106l-8 -176h8q27 33 64 68.5t83 64.5t103.5 48.5t126.5 19.5q102 0 161.5 -49.5t59.5 -172.5q0 -61 -18 -147l-146 -680h-153l137 647q8 37 14.5 73t6.5 64q0 59 -28 96.5t-103 37.5q-53 0 -104.5 -25t-96.5 -62.5t-81 -84t-61 -91.5l-135 -655h-153z" />
<glyph unicode="o" horiz-adv-x="1019" d="M102 319q0 162 42 296.5t116 230.5t171 149.5t208 53.5q86 0 146.5 -28t98.5 -76t54 -110.5t16 -129.5q0 -154 -40 -287t-110.5 -231.5t-164.5 -155t-205 -56.5q-92 0 -154.5 30t-102.5 79t-57.5 110.5t-17.5 124.5zM266 356q0 -121 45 -185.5t144 -64.5q68 0 128 48.5 t106 130.5t74 187.5t28 219.5q0 104 -38 165t-145 61q-68 0 -129 -46.5t-109 -124t-76 -179t-28 -212.5z" />
<glyph unicode="p" horiz-adv-x="1040" d="M-10 -410l305 1434h106l-10 -176h8q29 37 65 72.5t79 64.5t94 46.5t111 17.5q49 0 92 -15.5t75.5 -51.5t52 -95.5t19.5 -145.5q0 -180 -49 -322.5t-129 -240.5t-179.5 -150.5t-197.5 -52.5q-72 0 -126 13.5t-73 27.5l-90 -426h-153zM264 154q35 -27 72 -37.5t80 -10.5 q80 0 152.5 44.5t130 126t91 196.5t33.5 256q0 82 -33.5 135.5t-99.5 53.5q-55 0 -105 -29t-92 -71t-75 -90t-53 -89z" />
<glyph unicode="q" horiz-adv-x="1030" d="M94 289q0 137 45 272t125 241.5t190.5 173t243.5 66.5q43 0 87 -6t83 -15t72 -20.5t51 -23.5l-295 -1387h-153l125 582h-9q-25 -33 -56.5 -67.5t-71 -63.5t-89 -47.5t-104.5 -18.5q-66 0 -113 24t-75.5 65.5t-42 99t-13.5 125.5zM258 303q0 -98 32 -147.5t91 -49.5 q51 0 103.5 31t97.5 77t79.5 98.5t55.5 95.5l102 473q-33 18 -79 24t-81 6q-80 0 -152.5 -51t-127.5 -136t-88 -194.5t-33 -226.5z" />
<glyph unicode="r" horiz-adv-x="669" d="M74 0l217 1024h106v-176h9q25 39 53 72.5t63 60.5t76 42t90 15q45 0 94 -14l-41 -135q-18 4 -37.5 6t-35.5 2q-104 0 -180 -65.5t-119 -159.5l-142 -672h-153z" />
<glyph unicode="s" horiz-adv-x="815" d="M6 41l57 129q41 -27 108 -45.5t138 -18.5q100 0 160.5 44.5t60.5 138.5q0 53 -26.5 90t-67.5 66.5t-88 58t-88 64.5t-67.5 84t-26.5 120q0 57 27.5 107.5t75.5 88.5t115 59.5t144 21.5q109 0 168.5 -14.5t106.5 -41.5l-51 -123q-82 47 -224 48q-86 0 -142 -36t-56 -110 q0 -43 26.5 -74.5t67.5 -60.5t88 -58.5t88 -67.5t67.5 -89t26.5 -121q0 -160 -107.5 -243t-287.5 -83q-92 0 -169 18.5t-124 47.5z" />
<glyph unicode="t" horiz-adv-x="641" d="M115 893l30 131h152l43 203l164 47l-53 -250h268l-31 -131h-266l-129 -619l-7 -45t-3 -36q0 -49 22.5 -68t67.5 -19q49 0 90 12.5t82 37.5v-125q-43 -25 -110.5 -40.5t-129.5 -15.5q-186 0 -186 170q0 35 10 86l139 662h-153z" />
<glyph unicode="u" horiz-adv-x="1046" d="M123 197q0 72 20 161l140 666h153l-143 -682q-12 -55 -12 -102q0 -57 22.5 -95.5t81.5 -38.5q49 0 99.5 25t96.5 63.5t83.5 86t62.5 92.5l137 651h154l-129 -608q-8 -35 -16.5 -85t-15.5 -105.5t-11 -107.5t-4 -91v-27h-121v195h-8q-31 -41 -71 -80t-88 -70t-103.5 -50.5 t-116.5 -19.5q-45 0 -83 10.5t-66.5 36t-45 67.5t-16.5 108z" />
<glyph unicode="v" horiz-adv-x="915" d="M123 1024h164l106 -600l19 -195h4l88 199l346 596h176l-639 -1047h-65z" />
<glyph unicode="w" horiz-adv-x="1402" d="M117 1024h155l64 -596l-4 -199h8l82 203l338 592h114l97 -598l8 -197h2l80 201l301 594h156l-551 -1047h-78l-109 676l-2 168h-4l-76 -170l-389 -674h-73z" />
<glyph unicode="x" horiz-adv-x="991" d="M-45 0l461 524l-219 500h174l121 -283l36 -116l84 116l248 283h187l-435 -492l244 -532h-174l-139 311l-41 123l-86 -123l-275 -311h-186z" />
<glyph unicode="y" horiz-adv-x="899" d="M-41 -401l49 141q23 -8 49 -8q59 0 119 61.5t133 206.5l-176 1024h164l100 -664l11 -196h10l78 198l340 662h163l-483 -913l-105 -196q-52 -95 -107.5 -170t-115 -120t-122.5 -45q-35 0 -61 4.5t-46 14.5z" />
<glyph unicode="z" horiz-adv-x="878" d="M-4 0l27 141l575 654l113 88h-529l31 141h690l-31 -141l-581 -660l-111 -82h535l-29 -141h-690z" />
<glyph unicode="{" horiz-adv-x="667" d="M154 412l30 139q152 0 191 174l106 496q20 96 78.5 155.5t151.5 59.5h166l-31 -144h-98q-53 0 -83 -27.5t-44 -93.5l-101 -485q-18 -90 -69.5 -137t-106.5 -57l-2 -13q41 -6 70.5 -47t27.5 -106q0 -10 -3 -24.5t-12 -65t-32 -153.5l-63 -290q-2 -12 -4 -22.5t-2 -20.5 q-2 -78 86 -78h96l-33 -143h-166q-72 0 -110.5 40t-36.5 114q0 29 8 59l102 487q8 37 9 66q4 66 -30 91.5t-95 25.5z" />
<glyph unicode="|" horiz-adv-x="487" d="M236 -266v1700h141v-1700h-141z" />
<glyph unicode="}" horiz-adv-x="677" d="M-129 -471l33 143h96q51 0 81 28t42 93l102 486q20 90 70.5 137t107.5 57l5 12q-45 6 -75 47t-28 107q0 10 2 24l4 25l105 483q4 12 5 22.5t1 20.5q2 78 -84 78h-94l28 144h166q72 0 112 -39t36 -115q0 -29 -8 -59l-103 -488q-8 -35 -8 -61q-2 -68 31.5 -94.5t95.5 -26.5 l-33 -139q-74 0 -123 -43t-69 -131q0 -2 -5.5 -24.5t-12.5 -57.5l-16 -80l-18 -90l-51 -244q-20 -96 -79.5 -155.5t-151.5 -59.5h-164z" />
<glyph unicode="~" horiz-adv-x="983" d="M94 739q88 68 160 94.5t131 26.5q57 0 106.5 -17.5t94.5 -39t88 -38.5t90 -17q39 0 80 16t88 57l69 -125q-78 -53 -140 -74.5t-113 -21.5q-55 0 -101.5 17.5t-88.5 39t-84 39t-91 17.5q-47 0 -100.5 -21.5t-118.5 -75.5z" />
<glyph unicode="&#xa1;" horiz-adv-x="593" d="M37 -410l151 711l109 361h96l-45 -361l-151 -711h-160zM268 928q0 55 33 87t86 32t86 -32t33 -87q0 -53 -33 -86t-86 -33t-86 33t-33 86z" />
<glyph unicode="&#xa2;" d="M207 303q0 158 39 286t105.5 223t154.5 153.5t186 74.5l41 189h137l-41 -182q53 -6 93.5 -18.5t74.5 -27.5l-57 -127q-27 16 -65.5 26.5t-86.5 14.5l-170 -804q55 8 110.5 32.5t90.5 46.5l39 -102q-51 -43 -120.5 -69.5t-135.5 -36.5l-39 -187h-135l39 185 q-78 12 -129 46.5t-80 81t-40 97.5t-11 98zM371 367q0 -113 37.5 -175.5t105.5 -78.5l168 796q-61 -16 -117.5 -66t-99.5 -124t-68.5 -165t-25.5 -187z" />
<glyph unicode="&#xa3;" d="M76 0l30 145q61 0 118 31t100 83t68.5 124t25.5 158q0 41 -4 74.5t-11 66.5h-192l31 131h133q-8 37 -12.5 79t-4.5 95q0 117 41 206t110 147.5t161 88t196 29.5q82 0 155 -17.5t120 -43.5l-56 -131q-41 23 -106.5 37t-147.5 14q-63 0 -119.5 -21.5t-98.5 -63.5 t-66.5 -102.5t-24.5 -138.5q0 -63 5 -104t14 -74h317l-31 -131h-256q4 -25 6.5 -55.5t2.5 -71.5q0 -68 -13.5 -125t-33 -103t-44 -80t-47.5 -54l-92 -70l-2 -10l127 28h500l-31 -141h-868z" />
<glyph unicode="&#xa4;" d="M86 293l158 160l69 45q-63 86 -63 209q0 59 17.5 112t45.5 99l-69 43l-158 159l100 101l160 -158l43 -72q86 68 211 68q121 0 211 -68l45 72l160 158l98 -101l-156 -159l-71 -46q66 -88 65 -208q0 -123 -65 -211l71 -43l156 -160l-98 -98l-160 157l-43 68 q-88 -63 -213 -64q-127 0 -211 64l-43 -68l-160 -157zM391 707q0 -92 58.5 -153.5t150.5 -61.5t151.5 61t59.5 154q0 92 -59.5 154.5t-151.5 62.5t-150.5 -62.5t-58.5 -154.5z" />
<glyph unicode="&#xa5;" d="M184 297l25 123h240l26 129h-237l26 123h182l-235 762h178l189 -627l6 -125h2l61 129l436 623h185l-551 -762h182l-27 -123h-233l-27 -129h234l-27 -123h-233l-62 -297h-164l62 297h-238z" />
<glyph unicode="&#xa6;" horiz-adv-x="487" d="M236 -266v688h141v-688h-141zM236 745v689h141v-689h-141z" />
<glyph unicode="&#xa7;" horiz-adv-x="968" d="M98 49l66 125q41 -23 99.5 -41t131.5 -18q82 0 137.5 31.5t55.5 107.5q0 45 -29 75.5t-74 54.5t-99 48.5t-99 57t-76 79.5t-31 121q0 90 44 153.5t114 110.5l94 37q-47 39 -66.5 82t-19.5 94q0 61 28.5 114.5t78 92.5t116 61.5t144.5 22.5q106 0 170.5 -18.5t111.5 -46.5 l-59 -125q-41 23 -101.5 37t-132.5 14q-88 0 -142 -44t-54 -114q0 -43 32.5 -69.5t78 -47t99.5 -41t99 -52t76 -79t31 -122.5q0 -88 -47.5 -158t-112.5 -111l-111 -37q47 -33 72 -75.5t25 -114.5q0 -70 -30 -122t-79 -87t-114.5 -52.5t-139.5 -17.5q-106 0 -173 22.5 t-114 51.5zM344 713q0 -43 18.5 -74t49 -53.5t72.5 -39.5l89 -36q31 12 63 31.5t59.5 46t45 61.5t17.5 78q0 45 -18.5 73.5t-51.5 50t-76 38.5l-92 37q-31 -12 -62.5 -32t-57 -45.5t-41 -59t-15.5 -76.5z" />
<glyph unicode="&#xa8;" horiz-adv-x="501" d="M399 1337q0 45 26 75t69 30t69.5 -30t26.5 -75q0 -41 -26.5 -70.5t-69.5 -29.5t-69 29.5t-26 70.5zM774 1339q0 43 25.5 73t68.5 30q45 0 71 -30t26 -73t-26 -72.5t-71 -29.5q-43 0 -68.5 29.5t-25.5 72.5z" />
<glyph unicode="&#xa9;" horiz-adv-x="1650" d="M158 594q0 170 57 304t155.5 226.5t229.5 141.5t279 49q147 0 278 -49t229.5 -141.5t155.5 -226.5t57 -304t-57 -304t-155.5 -226.5t-229.5 -141.5t-278 -49q-164 0 -297 49t-227.5 141.5t-145.5 226.5t-51 304zM301 594q0 -141 45 -251t123 -183.5t183.5 -112.5 t226.5 -39t226 39t183 112.5t123 183.5t45 251t-45 250.5t-123 183.5t-183.5 113t-225.5 39q-121 0 -226.5 -39t-183.5 -113t-123 -183.5t-45 -250.5zM535 594q0 186 93 287.5t246 101.5q37 0 67 -4t55.5 -11t50.5 -18l55 -22l-53 -125q-45 23 -86 31t-70 8 q-86 0 -140.5 -53.5t-54.5 -194.5q0 -119 53.5 -183.5t157.5 -66.5q96 0 164 37l43 -121q-47 -27 -105.5 -41t-136.5 -14q-166 0 -252.5 104.5t-86.5 284.5z" />
<glyph unicode="&#xaa;" horiz-adv-x="780" d="M123 946q0 63 29.5 108.5t79 75t114 43t135.5 13.5q29 0 57.5 -2t57.5 -6q12 39 12 69q0 88 -116 88q-78 0 -132.5 -15t-95.5 -34l-10 100q53 27 126 45.5t171 18.5q96 0 146.5 -43t50.5 -109q0 -51 -15.5 -117.5t-35 -138t-35 -140t-15.5 -124.5h-102l-6 94h-7 q-35 -35 -88 -68.5t-137 -33.5q-92 0 -138 52t-46 124zM264 961q0 -33 20.5 -54.5t65.5 -21.5q84 0 132 38t73 74l16 86q-20 2 -40 2h-42q-43 0 -82.5 -5t-71.5 -18t-51.5 -37.5t-19.5 -63.5z" />
<glyph unicode="&#xab;" horiz-adv-x="929" d="M78 530l409 471l93 -96l-254 -297l-117 -76l72 -75l137 -291l-111 -88zM434 530l406 467l90 -94l-252 -295l-115 -76l70 -75l137 -289l-111 -86z" />
<glyph unicode="&#xac;" horiz-adv-x="1034" d="M137 655v148h869v-393h-144v245h-725z" />
<glyph unicode="&#xad;" horiz-adv-x="700" d="M129 520l33 139h471l-35 -139h-469z" />
<glyph unicode="&#xae;" horiz-adv-x="1433" d="M281 924q0 131 43 232t117.5 170t173 104.5t208.5 35.5q113 0 212.5 -35.5t173 -104.5t115.5 -170t42 -232t-43 -232.5t-118 -170t-173 -104.5t-209 -36q-115 0 -213 36t-171.5 104.5t-115.5 170t-42 232.5zM410 924q0 -106 32.5 -185.5t89 -131.5t132 -78.5t159.5 -26.5 q88 0 164 25.5t131.5 77.5t87 131t31.5 188q0 106 -33 185t-89 131t-131 79t-161 27q-90 0 -165.5 -27t-131 -79t-86 -131t-30.5 -185zM612 659v531q33 10 92.5 15t112.5 5q86 0 147.5 -35.5t61.5 -123.5q0 -66 -42 -101t-103 -39l57 -28l152 -224h-125l-148 213l-98 31 v-244h-107zM719 965h69q59 0 92 18t33 64q0 72 -118 71q-23 0 -43.5 -1t-32.5 -7v-145z" />
<glyph unicode="&#xaf;" horiz-adv-x="641" d="M635 1190l29 127h575l-27 -127h-577z" />
<glyph unicode="&#xb0;" horiz-adv-x="870" d="M289 1169q0 63 22.5 116.5t61.5 91.5t92 59.5t113 21.5q59 0 112 -19.5t92 -57.5t61.5 -91t22.5 -121t-22.5 -121t-61.5 -90.5t-92 -57t-112 -19.5t-112.5 19.5t-92.5 57t-61.5 90.5t-22.5 121zM420 1169q0 -78 47 -121.5t111 -43.5q63 0 110 44t47 121q0 78 -47 122 t-110 44t-110.5 -44t-47.5 -122z" />
<glyph unicode="&#xb1;" horiz-adv-x="983" d="M113 365v147h868v-147h-868zM113 862v148h360v370h148v-370h360v-148h-360v-246h-148v246h-360z" />
<glyph unicode="&#xb2;" horiz-adv-x="772" d="M852 1460q0 -66 -29.5 -132t-80 -133t-116 -129.5t-134.5 -119.5l-103 -63v-6l117 32h268l-28 -131h-564l15 68l89 66q52 40 109.5 89.5t112.5 104.5t100 111.5t73 109.5t28 100q0 94 -113 95q-53 0 -106.5 -19.5t-94.5 -44.5l-18 117q57 37 129 57.5t141 20.5 q37 0 74 -9.5t65.5 -32t47 -59.5t18.5 -92z" />
<glyph unicode="&#xb3;" horiz-adv-x="772" d="M457 887q115 0 169 56t54 134q0 55 -32.5 83t-131.5 28h-106l8 47l237 240l78 53l-98 -13h-248l27 123h497l-14 -67l-254 -254l-53 -37l-2 -4l45 6q78 0 132 -50t54 -136q0 -66 -20.5 -126.5t-65.5 -106.5t-117.5 -72.5t-179.5 -26.5q-70 0 -118 12t-82 27l53 123 q29 -16 72 -27.5t96 -11.5z" />
<glyph unicode="&#xb4;" horiz-adv-x="487" d="M690 1169l180 306h172l-10 -43l-252 -263h-90z" />
<glyph unicode="&#xb5;" horiz-adv-x="1075" d="M-29 -410l303 1434h154l-78 -377l-43 -211q-14 -74 -17 -100.5t-3 -42.5q0 -176 164 -176q109 0 196.5 67.5t140.5 175.5l142 664h153l-147 -690q-16 -84 -28.5 -169t-12.5 -165h-104l-25 152h-8q-55 -72 -146.5 -124.5t-208.5 -52.5q-92 0 -136 42t-60 102h-10l-15 -256 l-57 -273h-154z" />
<glyph unicode="&#x3bc;" horiz-adv-x="1075" d="M-29 -410l303 1434h154l-78 -377l-43 -211q-14 -74 -17 -100.5t-3 -42.5q0 -176 164 -176q109 0 196.5 67.5t140.5 175.5l142 664h153l-147 -690q-16 -84 -28.5 -169t-12.5 -165h-104l-25 152h-8q-55 -72 -146.5 -124.5t-208.5 -52.5q-92 0 -136 42t-60 102h-10l-15 -256 l-57 -273h-154z" />
<glyph unicode="&#xb6;" horiz-adv-x="1013" d="M154 1036q0 76 23.5 147.5t68.5 127t110.5 89.5t147.5 34h92v-1700h-141v901q-66 0 -121 33.5t-95 90t-62.5 129t-22.5 148.5zM774 -266v1700h141v-1700h-141z" />
<glyph unicode="&#xb7;" horiz-adv-x="546" d="M201 606q0 55 32.5 87t85.5 32t86 -31.5t33 -87.5q0 -53 -32.5 -86t-86.5 -33q-53 0 -85.5 33t-32.5 86z" />
<glyph unicode="&#xb8;" horiz-adv-x="743" d="M485 -418l35 80q10 -2 22 -2h21q43 0 72 8t45 19.5t22.5 26t6.5 26.5q0 39 -43 57.5t-115 18.5l133 184h109l-68 -88q55 -6 91 -42t36 -101q0 -86 -64.5 -141.5t-193.5 -55.5q-25 0 -52.5 3t-56.5 7z" />
<glyph unicode="&#xb9;" horiz-adv-x="772" d="M264 903h207l111 520l28 74l-63 -57l-166 -92l-43 94l348 211h80l-160 -750h185l-27 -125h-526z" />
<glyph unicode="&#xba;" horiz-adv-x="776" d="M123 1004q0 119 36 204.5t91 141t122.5 82t133.5 26.5q117 0 177 -63.5t60 -180.5q0 -111 -30.5 -194.5t-82.5 -141t-123 -87t-149 -29.5q-104 0 -169.5 63.5t-65.5 178.5zM264 1020q0 -66 30 -102.5t89 -36.5q43 0 83 22.5t70.5 64.5t48 102t17.5 136q0 72 -31.5 102.5 t-89.5 30.5q-43 0 -83 -25.5t-69.5 -68.5t-47 -101t-17.5 -124z" />
<glyph unicode="&#xbb;" horiz-adv-x="929" d="M78 174l252 295l114 78l-71 88l-140 289l117 73l223 -448l-405 -467zM428 172l254 297l115 78l-72 90l-141 291l118 73l228 -452l-410 -471z" />
<glyph unicode="&#xbc;" horiz-adv-x="1632" d="M1309 1460l107 -74l-998 -1411l-106 74zM1524 197h-160l-43 -197h-131l43 197h-395l14 76l569 618h88l-121 -573h162zM1313 580l34 100h-4l-63 -94l-197 -215l-78 -64l101 11h151zM524 1219l31 73l-64 -57l-165 -92l-50 100l355 205h80l-187 -875h-135z" />
<glyph unicode="&#xbd;" horiz-adv-x="1656" d="M1309 1460l107 -74l-998 -1411l-106 74zM1606 682q0 -66 -29.5 -132t-80 -133t-116 -129.5t-134.5 -119.5l-103 -63v-6l117 32h268l-28 -131h-564l15 68l89 66q52 40 109.5 89.5t112.5 104.5t100 111.5t73 109.5t28 100q0 94 -113 95q-53 0 -106.5 -19.5t-94.5 -44.5 l-18 117q57 37 129 57.5t141 20.5q37 0 74 -9.5t65.5 -32t47 -59.5t18.5 -92zM524 1219l31 73l-64 -57l-165 -92l-50 100l355 205h80l-187 -875h-135z" />
<glyph unicode="&#xbe;" horiz-adv-x="1705" d="M1382 1460l107 -74l-998 -1411l-106 74zM1598 197h-160l-43 -197h-131l43 197h-395l14 76l569 618h88l-121 -573h162zM1387 580l34 100h-4l-63 -94l-197 -215l-78 -64l101 11h151zM428 682q115 0 169 56t54 134q0 55 -32.5 83t-131.5 28h-106l8 47l237 240l78 53l-98 -13 h-248l27 123h497l-14 -67l-254 -254l-53 -37l-2 -4l45 6q78 0 132 -50t54 -136q0 -66 -20.5 -126.5t-65.5 -106.5t-117.5 -72.5t-179.5 -26.5q-70 0 -118 12t-82 27l53 123q29 -16 72 -27.5t96 -11.5z" />
<glyph unicode="&#xbf;" horiz-adv-x="845" d="M-29 -184q0 111 35 191.5t88 144t117.5 118t123 111.5t102.5 123.5t59 157.5h131q-10 -102 -51 -179t-96.5 -139.5t-116 -116t-110.5 -109t-84 -116.5t-34 -141t42 -122t147 -42q72 0 141.5 27.5t128.5 62.5l41 -119q-41 -25 -80 -43t-82 -31.5t-93 -20.5t-114 -7 q-152 0 -223.5 69.5t-71.5 180.5zM479 930q0 55 33 87t86 32t86 -32t33 -87q0 -53 -33 -86t-86 -33t-86 33t-33 86z" />
<glyph unicode="&#xc0;" horiz-adv-x="1140" d="M-68 0l828 1456h76l206 -1456h-157l-58 397h-499l-222 -397h-174zM408 545h403l-59 436l-4 217h-3l-92 -221zM934 1540h-129l-265 199l9 43h206z" />
<glyph unicode="&#xc1;" horiz-adv-x="1140" d="M-68 0l828 1456h76l206 -1456h-157l-58 397h-499l-222 -397h-174zM408 545h403l-59 436l-4 217h-3l-92 -221zM956 1782h237l-10 -43l-358 -199h-150z" />
<glyph unicode="&#xc2;" horiz-adv-x="1140" d="M-68 0l828 1456h76l206 -1456h-157l-58 397h-499l-222 -397h-174zM408 545h403l-59 436l-4 217h-3l-92 -221zM804 1782h99l203 -209l-9 -43h-139l-94 100l-21 72l-51 -70l-145 -102h-154l10 45z" />
<glyph unicode="&#xc3;" horiz-adv-x="1140" d="M-68 0l828 1456h76l206 -1456h-157l-58 397h-499l-222 -397h-174zM408 545h403l-59 436l-4 217h-3l-92 -221zM526 1608q72 66 128.5 89t103.5 23q37 0 68.5 -10t61.5 -23.5t58.5 -23.5t59.5 -10q51 0 108 43l33 -88q-66 -53 -116 -71.5t-91 -18.5q-37 0 -67.5 10 t-60.5 23.5t-58.5 23.5t-59.5 10t-64.5 -13t-74.5 -48z" />
<glyph unicode="&#xc4;" horiz-adv-x="1140" d="M-68 0l828 1456h76l206 -1456h-157l-58 397h-499l-222 -397h-174zM408 545h403l-59 436l-4 217h-3l-92 -221zM539 1626q0 41 28.5 68.5t75.5 27.5t75 -27.5t28 -68.5t-28 -67.5t-75 -26.5t-75.5 26.5t-28.5 67.5zM914 1626q0 41 27.5 68.5t74.5 27.5t75.5 -27.5 t28.5 -68.5t-28.5 -67.5t-75.5 -26.5t-74.5 26.5t-27.5 67.5z" />
<glyph unicode="&#xc5;" horiz-adv-x="1140" d="M-68 0l803 1413q-129 35 -129 160q0 76 51.5 125t163.5 49q102 0 159.5 -44t57.5 -130q0 -72 -49 -118t-147 -52l200 -1403h-157l-58 397h-499l-222 -397h-174zM408 543h403l-59 438l-4 217h-3l-92 -221zM731 1573q0 -35 21.5 -58.5t68.5 -23.5q45 0 68.5 22.5t23.5 59.5 q0 39 -22.5 62.5t-69.5 23.5q-45 0 -67.5 -23.5t-22.5 -62.5z" />
<glyph unicode="&#xc6;" horiz-adv-x="1648" d="M-127 0l1108 1434h750l-31 -150h-580l-100 -471h530l-32 -149h-529l-110 -514h589l-30 -150h-588h-164l86 403h-407l-304 -403h-188zM479 551h322l145 676h-6l-104 -207z" />
<glyph unicode="&#xc7;" horiz-adv-x="1114" d="M145 561q0 231 68 400t178.5 280t248.5 164t280 53q117 0 190.5 -16.5t120.5 -38.5l-74 -150q-41 23 -107.5 38.5t-152.5 15.5q-115 0 -220.5 -50.5t-185 -144.5t-127 -229t-47.5 -303q0 -98 26 -181.5t74 -143.5t118.5 -94t160.5 -34q96 0 160 21.5t115 50.5l12 -140 q-66 -45 -140.5 -63.5t-170.5 -20.5l-49 -63q55 -6 91 -42t36 -101q0 -86 -64.5 -141.5t-193.5 -55.5q-25 0 -52.5 3t-56.5 7l35 80q10 -2 21 -2h22q43 0 71.5 8t45 19.5t22.5 26t6 26.5q0 39 -43 57.5t-114 18.5l118 166q-100 14 -178 64t-132 126t-83 175t-29 214z" />
<glyph unicode="&#xc8;" horiz-adv-x="1044" d="M82 0l305 1434h739l-30 -152h-580l-100 -469h530l-31 -151h-530l-109 -510h590l-32 -152h-590h-162zM867 1540h-129l-265 199l9 43h206z" />
<glyph unicode="&#xc9;" horiz-adv-x="1044" d="M82 0l305 1434h739l-30 -152h-580l-100 -469h530l-31 -151h-530l-109 -510h590l-32 -152h-590h-162zM924 1782h237l-10 -43l-358 -199h-150z" />
<glyph unicode="&#xca;" horiz-adv-x="1044" d="M82 0l305 1434h739l-30 -152h-580l-100 -469h530l-31 -151h-530l-109 -510h590l-32 -152h-590h-162zM782 1782h99l203 -209l-9 -43h-139l-94 100l-21 72l-51 -70l-145 -102h-154l10 45z" />
<glyph unicode="&#xcb;" horiz-adv-x="1044" d="M82 0l305 1434h739l-30 -152h-580l-100 -469h530l-31 -151h-530l-109 -510h590l-32 -152h-590h-162zM492 1626q0 41 28.5 68.5t75.5 27.5t75 -27.5t28 -68.5t-28 -67.5t-75 -26.5t-75.5 26.5t-28.5 67.5zM867 1626q0 41 27.5 68.5t74.5 27.5t75.5 -27.5t28.5 -68.5 t-28.5 -67.5t-75.5 -26.5t-74.5 26.5t-27.5 67.5z" />
<glyph unicode="&#xcc;" horiz-adv-x="567" d="M127 0l303 1434h164l-303 -1434h-164zM650 1540h-129l-265 199l9 43h206z" />
<glyph unicode="&#xcd;" horiz-adv-x="567" d="M127 0l303 1434h164l-303 -1434h-164zM668 1782h237l-10 -43l-358 -199h-150z" />
<glyph unicode="&#xce;" horiz-adv-x="567" d="M127 0l303 1434h164l-303 -1434h-164zM538 1782h99l203 -209l-9 -43h-139l-94 100l-21 72l-51 -70l-145 -102h-154l10 45z" />
<glyph unicode="&#xcf;" horiz-adv-x="567" d="M127 0l303 1434h164l-303 -1434h-164zM254 1626q0 41 28.5 68.5t75.5 27.5t75 -27.5t28 -68.5t-28 -67.5t-75 -26.5t-75.5 26.5t-28.5 67.5zM629 1626q0 41 27.5 68.5t74.5 27.5t75.5 -27.5t28.5 -68.5t-28.5 -67.5t-75.5 -26.5t-74.5 26.5t-27.5 67.5z" />
<glyph unicode="&#xd0;" horiz-adv-x="1282" d="M57 680l27 123h176l135 631q78 10 176.5 13t178.5 3q119 0 217 -32t166.5 -97.5t105.5 -165.5t37 -235q0 -90 -16.5 -196t-54.5 -209t-101.5 -199.5t-157.5 -171t-220 -118.5t-292 -44q-31 0 -81 1t-103 3q-139 8 -160 12l146 682h-179zM285 141q8 -2 32.5 -3t52.5 -2 l53 -2q26 -1 36 -1q178 0 300 74t198.5 186.5t111.5 247.5t35 256q0 92 -20.5 166t-64.5 126t-113.5 80.5t-168.5 28.5q-25 0 -55 -1l-59 -2q-29 -1 -55.5 -3t-41.5 -4l-102 -485h281l-25 -123h-283z" />
<glyph unicode="&#xd1;" horiz-adv-x="1314" d="M82 0l309 1456h82l447 -958l67 -201h8l19 201l200 936h154l-309 -1457h-76l-448 961l-70 211h-6l-25 -211l-198 -938h-154zM591 1608q72 66 128.5 89t103.5 23q37 0 68.5 -10t61.5 -23.5t58.5 -23.5t59.5 -10q51 0 108 43l33 -88q-66 -53 -116 -71.5t-91 -18.5 q-37 0 -67.5 10t-60.5 23.5t-58.5 23.5t-59.5 10t-64.5 -13t-74.5 -48z" />
<glyph unicode="&#xd2;" horiz-adv-x="1333" d="M145 524q0 188 51.5 358.5t146.5 298.5t229.5 202.5t297.5 74.5q98 0 182.5 -29.5t144.5 -94t94 -167t34 -249.5q0 -193 -51 -364t-143.5 -300t-220.5 -204t-281 -75q-242 0 -363 140.5t-121 408.5zM317 526q0 -193 80 -298t236 -105q115 0 210 63.5t164.5 172t107.5 252 t38 302.5q0 119 -26.5 197t-70.5 122t-100.5 61.5t-113.5 17.5q-117 0 -213.5 -64.5t-165 -173t-107.5 -251t-39 -296.5zM1031 1540h-129l-265 199l9 43h206z" />
<glyph unicode="&#xd3;" horiz-adv-x="1333" d="M145 524q0 188 51.5 358.5t146.5 298.5t229.5 202.5t297.5 74.5q98 0 182.5 -29.5t144.5 -94t94 -167t34 -249.5q0 -193 -51 -364t-143.5 -300t-220.5 -204t-281 -75q-242 0 -363 140.5t-121 408.5zM317 526q0 -193 80 -298t236 -105q115 0 210 63.5t164.5 172t107.5 252 t38 302.5q0 119 -26.5 197t-70.5 122t-100.5 61.5t-113.5 17.5q-117 0 -213.5 -64.5t-165 -173t-107.5 -251t-39 -296.5zM1090 1782h237l-10 -43l-358 -199h-150z" />
<glyph unicode="&#xd4;" horiz-adv-x="1333" d="M145 524q0 188 51.5 358.5t146.5 298.5t229.5 202.5t297.5 74.5q98 0 182.5 -29.5t144.5 -94t94 -167t34 -249.5q0 -193 -51 -364t-143.5 -300t-220.5 -204t-281 -75q-242 0 -363 140.5t-121 408.5zM317 526q0 -193 80 -298t236 -105q115 0 210 63.5t164.5 172t107.5 252 t38 302.5q0 119 -26.5 197t-70.5 122t-100.5 61.5t-113.5 17.5q-117 0 -213.5 -64.5t-165 -173t-107.5 -251t-39 -296.5zM915 1782h99l203 -209l-9 -43h-139l-94 100l-21 72l-51 -70l-145 -102h-154l10 45z" />
<glyph unicode="&#xd5;" horiz-adv-x="1333" d="M145 524q0 188 51.5 358.5t146.5 298.5t229.5 202.5t297.5 74.5q98 0 182.5 -29.5t144.5 -94t94 -167t34 -249.5q0 -193 -51 -364t-143.5 -300t-220.5 -204t-281 -75q-242 0 -363 140.5t-121 408.5zM317 526q0 -193 80 -298t236 -105q115 0 210 63.5t164.5 172t107.5 252 t38 302.5q0 119 -26.5 197t-70.5 122t-100.5 61.5t-113.5 17.5q-117 0 -213.5 -64.5t-165 -173t-107.5 -251t-39 -296.5zM610 1608q72 66 128.5 89t103.5 23q37 0 68.5 -10t61.5 -23.5t58.5 -23.5t59.5 -10q51 0 108 43l33 -88q-66 -53 -116 -71.5t-91 -18.5q-37 0 -67.5 10 t-60.5 23.5t-58.5 23.5t-59.5 10t-64.5 -13t-74.5 -48z" />
<glyph unicode="&#xd6;" horiz-adv-x="1333" d="M145 524q0 188 51.5 358.5t146.5 298.5t229.5 202.5t297.5 74.5q98 0 182.5 -29.5t144.5 -94t94 -167t34 -249.5q0 -193 -51 -364t-143.5 -300t-220.5 -204t-281 -75q-242 0 -363 140.5t-121 408.5zM317 526q0 -193 80 -298t236 -105q115 0 210 63.5t164.5 172t107.5 252 t38 302.5q0 119 -26.5 197t-70.5 122t-100.5 61.5t-113.5 17.5q-117 0 -213.5 -64.5t-165 -173t-107.5 -251t-39 -296.5zM629 1626q0 41 28.5 68.5t75.5 27.5t75 -27.5t28 -68.5t-28 -67.5t-75 -26.5t-75.5 26.5t-28.5 67.5zM1004 1626q0 41 27.5 68.5t74.5 27.5t75.5 -27.5 t28.5 -68.5t-28.5 -67.5t-75.5 -26.5t-74.5 26.5t-27.5 67.5z" />
<glyph unicode="&#xd7;" horiz-adv-x="983" d="M178 430l260 264l-260 256l105 109l260 -260l260 260l104 -109l-258 -256l258 -260l-104 -106l-260 260l-258 -262z" />
<glyph unicode="&#xd8;" horiz-adv-x="1333" d="M145 524q0 188 51.5 358.5t146.5 298.5t229.5 202.5t297.5 74.5q80 0 151 -19.5t126 -60.5l59 80l101 -78l-72 -96q43 -63 66.5 -153.5t23.5 -212.5q0 -193 -51 -364t-143.5 -300t-220.5 -204t-281 -75q-180 0 -297 82l-60 -80l-102 80l70 95q-95 132 -95 372zM317 526 q0 -129 37 -221l690 934q-43 39 -95 55.5t-107 16.5q-117 0 -213.5 -64.5t-165 -173t-107.5 -251t-39 -296.5zM430 193q80 -70 203 -70q115 0 210 63.5t164.5 172t107.5 252t38 302.5q0 66 -8 119t-25 94z" />
<glyph unicode="&#xd9;" horiz-adv-x="1265" d="M178 338q0 84 23 190l190 906h164l-190 -908q-23 -90 -23 -164q0 -129 67.5 -179t200.5 -50q80 0 140.5 22.5t104.5 69.5t73.5 121t52.5 178l193 910h155l-201 -957q-29 -131 -71.5 -225t-107 -153.5t-154.5 -88t-209 -28.5q-113 0 -191 25.5t-126 71.5t-69.5 112.5 t-21.5 146.5zM1022 1540h-129l-265 199l9 43h206z" />
<glyph unicode="&#xda;" horiz-adv-x="1265" d="M178 338q0 84 23 190l190 906h164l-190 -908q-23 -90 -23 -164q0 -129 67.5 -179t200.5 -50q80 0 140.5 22.5t104.5 69.5t73.5 121t52.5 178l193 910h155l-201 -957q-29 -131 -71.5 -225t-107 -153.5t-154.5 -88t-209 -28.5q-113 0 -191 25.5t-126 71.5t-69.5 112.5 t-21.5 146.5zM1040 1782h237l-10 -43l-358 -199h-150z" />
<glyph unicode="&#xdb;" horiz-adv-x="1265" d="M178 338q0 84 23 190l190 906h164l-190 -908q-23 -90 -23 -164q0 -129 67.5 -179t200.5 -50q80 0 140.5 22.5t104.5 69.5t73.5 121t52.5 178l193 910h155l-201 -957q-29 -131 -71.5 -225t-107 -153.5t-154.5 -88t-209 -28.5q-113 0 -191 25.5t-126 71.5t-69.5 112.5 t-21.5 146.5zM890 1782h99l203 -209l-9 -43h-139l-94 100l-21 72l-51 -70l-145 -102h-154l10 45z" />
<glyph unicode="&#xdc;" horiz-adv-x="1265" d="M178 338q0 84 23 190l190 906h164l-190 -908q-23 -90 -23 -164q0 -129 67.5 -179t200.5 -50q80 0 140.5 22.5t104.5 69.5t73.5 121t52.5 178l193 910h155l-201 -957q-29 -131 -71.5 -225t-107 -153.5t-154.5 -88t-209 -28.5q-113 0 -191 25.5t-126 71.5t-69.5 112.5 t-21.5 146.5zM606 1626q0 41 28.5 68.5t75.5 27.5t75 -27.5t28 -68.5t-28 -67.5t-75 -26.5t-75.5 26.5t-28.5 67.5zM981 1626q0 41 27.5 68.5t74.5 27.5t75.5 -27.5t28.5 -68.5t-28.5 -67.5t-75.5 -26.5t-74.5 26.5t-27.5 67.5z" />
<glyph unicode="&#xdd;" horiz-adv-x="1087" d="M221 1434h178l183 -627l6 -125h2l61 129l445 623h184l-623 -863l-120 -571h-164l121 569zM971 1782h237l-10 -43l-358 -199h-150z" />
<glyph unicode="&#xde;" horiz-adv-x="1089" d="M82 0l305 1434h162l-33 -154q82 6 166 6q94 0 174 -20.5t139.5 -65.5t94 -115.5t34.5 -169.5q0 -156 -55 -260t-147.5 -167.5t-207 -90t-231.5 -26.5h-31q-22 0 -46.5 1t-47 3t-32.5 4l-80 -379h-164zM358 530q8 -4 28 -5t41.5 -3t41.5 -2h31q88 0 170 18.5t145.5 62.5 t100 117t36.5 181q0 74 -24.5 120t-66.5 71.5t-97 36t-117 10.5q-47 0 -91 -3.5t-73 -9.5z" />
<glyph unicode="&#xdf;" horiz-adv-x="1144" d="M-233 -385l45 115q41 -14 74.5 -18.5t82.5 -4.5q78 0 117 80t61 213l168 893h-176l27 131h176l14 57q41 195 153 280t282 85q86 0 145 -20.5t96 -54.5t54.5 -78t17.5 -89q0 -72 -25.5 -121t-63.5 -85.5t-83 -64.5t-83 -55.5t-63.5 -58.5t-25.5 -74q0 -39 23.5 -62.5 t59.5 -41.5l78 -37.5t77.5 -50.5t59 -77t23.5 -120q0 -80 -35.5 -149.5t-96 -120.5t-141.5 -81t-171 -30q-72 0 -133.5 13.5t-110.5 44.5l74 137q82 -51 186 -51q43 0 90.5 15.5t85 44t63.5 70.5t26 97q0 47 -24 78t-59.5 53.5t-76.5 42t-78 47t-60.5 68.5t-23.5 104 q0 61 25.5 104.5t64.5 78t84 63.5t84 57.5t62.5 61.5t23.5 76q0 61 -45 92t-127 31q-223 2 -270 -283l-197 -1020q-18 -113 -43 -192.5t-61.5 -132t-90 -77t-129.5 -24.5q-61 0 -113 9t-97 32z" />
<glyph unicode="&#xe0;" horiz-adv-x="997" d="M92 293q0 131 34 266t104.5 243.5t182 178.5t269.5 70q57 0 140 -13.5t155 -36.5l-129 -598q-16 -76 -22.5 -153.5t-6.5 -145.5v-58q0 -28 4 -50h-114l-29 178h-8q-25 -35 -61 -70.5t-79 -64.5t-92 -46.5t-104 -17.5q-244 1 -244 318zM256 293q0 -78 30.5 -132.5 t96.5 -54.5q49 0 94 24t85 58.5t71 74.5t49 75l115 553q-61 29 -156 29q-94 0 -166 -55.5t-121 -144.5t-73.5 -201.5t-24.5 -225.5zM483 1432l8 43h187l59 -306h-88z" />
<glyph unicode="&#xe1;" horiz-adv-x="997" d="M92 293q0 131 34 266t104.5 243.5t182 178.5t269.5 70q57 0 140 -13.5t155 -36.5l-129 -598q-16 -76 -22.5 -153.5t-6.5 -145.5v-58q0 -28 4 -50h-114l-29 178h-8q-25 -35 -61 -70.5t-79 -64.5t-92 -46.5t-104 -17.5q-244 1 -244 318zM256 293q0 -78 30.5 -132.5 t96.5 -54.5q49 0 94 24t85 58.5t71 74.5t49 75l115 553q-61 29 -156 29q-94 0 -166 -55.5t-121 -144.5t-73.5 -201.5t-24.5 -225.5zM624 1169l180 306h172l-10 -43l-252 -263h-90z" />
<glyph unicode="&#xe2;" horiz-adv-x="997" d="M92 293q0 131 34 266t104.5 243.5t182 178.5t269.5 70q57 0 140 -13.5t155 -36.5l-129 -598q-16 -76 -22.5 -153.5t-6.5 -145.5v-58q0 -28 4 -50h-114l-29 178h-8q-25 -35 -61 -70.5t-79 -64.5t-92 -46.5t-104 -17.5q-244 1 -244 318zM256 293q0 -78 30.5 -132.5 t96.5 -54.5q49 0 94 24t85 58.5t71 74.5t49 75l115 553q-61 29 -156 29q-94 0 -166 -55.5t-121 -144.5t-73.5 -201.5t-24.5 -225.5zM416 1126l319 373h62l135 -373h-129l-49 136l-13 118l-69 -118l-117 -136h-139z" />
<glyph unicode="&#xe3;" horiz-adv-x="997" d="M92 293q0 131 34 266t104.5 243.5t182 178.5t269.5 70q57 0 140 -13.5t155 -36.5l-129 -598q-16 -76 -22.5 -153.5t-6.5 -145.5v-58q0 -28 4 -50h-114l-29 178h-8q-25 -35 -61 -70.5t-79 -64.5t-92 -46.5t-104 -17.5q-244 1 -244 318zM256 293q0 -78 30.5 -132.5 t96.5 -54.5q49 0 94 24t85 58.5t71 74.5t49 75l115 553q-61 29 -156 29q-94 0 -166 -55.5t-121 -144.5t-73.5 -201.5t-24.5 -225.5zM447 1343q66 68 113.5 93.5t84.5 25.5q31 0 55.5 -13t48 -28.5t47 -28t52.5 -12.5q47 0 111 50l30 -89q-59 -59 -102 -81.5t-78 -22.5 q-31 0 -55.5 12.5t-48 27.5t-48 27.5t-55.5 12.5q-27 0 -57.5 -13.5t-71.5 -46.5z" />
<glyph unicode="&#xe4;" horiz-adv-x="997" d="M92 293q0 131 34 266t104.5 243.5t182 178.5t269.5 70q57 0 140 -13.5t155 -36.5l-129 -598q-16 -76 -22.5 -153.5t-6.5 -145.5v-58q0 -28 4 -50h-114l-29 178h-8q-25 -35 -61 -70.5t-79 -64.5t-92 -46.5t-104 -17.5q-244 1 -244 318zM256 293q0 -78 30.5 -132.5 t96.5 -54.5q49 0 94 24t85 58.5t71 74.5t49 75l115 553q-61 29 -156 29q-94 0 -166 -55.5t-121 -144.5t-73.5 -201.5t-24.5 -225.5zM381 1337q0 45 26 75t69 30t69.5 -30t26.5 -75q0 -41 -26.5 -70.5t-69.5 -29.5t-69 29.5t-26 70.5zM756 1339q0 43 25.5 73t68.5 30 q45 0 71 -30t26 -73t-26 -72.5t-71 -29.5q-43 0 -68.5 29.5t-25.5 72.5z" />
<glyph unicode="&#xe5;" horiz-adv-x="997" d="M92 293q0 131 34 266t104.5 243.5t182 178.5t269.5 70q57 0 140 -13.5t155 -36.5l-129 -598q-16 -76 -22.5 -153.5t-6.5 -145.5v-58q0 -28 4 -50h-114l-29 178h-8q-25 -35 -61 -70.5t-79 -64.5t-92 -46.5t-104 -17.5q-244 1 -244 318zM256 293q0 -78 30.5 -132.5 t96.5 -54.5q49 0 94 24t85 58.5t71 74.5t49 75l115 553q-61 29 -156 29q-94 0 -166 -55.5t-121 -144.5t-73.5 -201.5t-24.5 -225.5zM516 1317q0 86 54 136t145 50q86 0 143 -45t57 -141q0 -80 -57 -132t-143 -52t-142.5 48t-56.5 136zM627 1317q0 -41 27.5 -63.5t60.5 -22.5 q39 0 64.5 20.5t25.5 65.5t-28 66.5t-62 21.5q-35 0 -61.5 -20.5t-26.5 -67.5z" />
<glyph unicode="&#xe6;" horiz-adv-x="1544" d="M57 227q0 104 45 175t122 113t179.5 60.5t214.5 18.5h47q24 0 46 -2q41 133 41 199t-39 92t-129 26q-33 0 -73 -5t-81 -15t-79 -23.5t-68 -27.5l-25 123q86 47 187.5 63t205.5 16q98 0 160.5 -34.5t77.5 -100.5q66 76 159 110t179 34q152 0 225.5 -67t73.5 -165 q0 -109 -50.5 -174t-140.5 -102t-217 -50.5t-278 -15.5q-6 -35 -10.5 -65.5t-4.5 -59.5q0 -113 57.5 -178.5t194.5 -65.5q66 0 136.5 26t113.5 56l35 -110q-70 -49 -165 -76t-193 -27q-119 0 -200 54.5t-110 148.5h-14q-66 -80 -163 -137t-214 -57q-63 0 -109.5 20.5t-77 54 t-45 77.5t-14.5 91zM221 262q0 -78 36 -112.5t103 -34.5q55 0 105.5 26.5t91.5 62.5t70.5 71.5t44.5 58.5l16 139q-23 2 -47.5 3t-46.5 1q-78 0 -146.5 -12t-118.5 -39t-79 -67t-29 -97zM864 600q100 0 191.5 5t161 24.5t110.5 58.5t41 107q0 51 -34 87t-132 36 q-125 0 -209 -82t-129 -236z" />
<glyph unicode="&#xe7;" horiz-adv-x="860" d="M102 303q0 174 47.5 312.5t126 234.5t181 147.5t211.5 51.5q78 0 128 -14.5t91 -33.5l-58 -127q-35 20 -86 32t-110 12q-70 0 -136.5 -47.5t-117.5 -124t-82 -176t-31 -203.5q0 -133 55.5 -197t149.5 -64q61 0 129 28t109 56l39 -102q-53 -45 -126 -74.5t-139 -38.5 l-51 -63q55 -6 91 -42t36 -101q0 -86 -64.5 -141.5t-193.5 -55.5q-25 0 -52.5 3t-55.5 7l34 80q10 -2 22 -2h21q43 0 72 8t45 19.5t22.5 26t6.5 26.5q0 39 -43 57.5t-115 18.5l117 159q-82 8 -135.5 43t-84 83.5t-42 101.5t-11.5 100z" />
<glyph unicode="&#xe8;" horiz-adv-x="948" d="M102 332q0 168 47.5 301t124 225t174 141.5t199.5 49.5q74 0 128 -20.5t89 -54.5t51.5 -78t16.5 -93q0 -145 -141.5 -228t-411.5 -83q-25 0 -51.5 1t-55.5 3q-8 -39 -12 -74t-4 -62q0 -113 51 -183.5t160 -70.5q90 0 165 30t116 63l49 -99q-72 -61 -169.5 -93t-195.5 -32 q-164 0 -247 94.5t-83 262.5zM301 610q78 0 162 4t152.5 21.5t113.5 55.5t45 106q0 20 -7 41.5t-23.5 39t-46 29t-74.5 11.5q-113 0 -196 -77t-126 -231zM450 1432l8 43h187l59 -306h-88z" />
<glyph unicode="&#xe9;" horiz-adv-x="948" d="M102 332q0 168 47.5 301t124 225t174 141.5t199.5 49.5q74 0 128 -20.5t89 -54.5t51.5 -78t16.5 -93q0 -145 -141.5 -228t-411.5 -83q-25 0 -51.5 1t-55.5 3q-8 -39 -12 -74t-4 -62q0 -113 51 -183.5t160 -70.5q90 0 165 30t116 63l49 -99q-72 -61 -169.5 -93t-195.5 -32 q-164 0 -247 94.5t-83 262.5zM301 610q78 0 162 4t152.5 21.5t113.5 55.5t45 106q0 20 -7 41.5t-23.5 39t-46 29t-74.5 11.5q-113 0 -196 -77t-126 -231zM588 1169l180 306h172l-10 -43l-252 -263h-90z" />
<glyph unicode="&#xea;" horiz-adv-x="948" d="M102 332q0 168 47.5 301t124 225t174 141.5t199.5 49.5q74 0 128 -20.5t89 -54.5t51.5 -78t16.5 -93q0 -145 -141.5 -228t-411.5 -83q-25 0 -51.5 1t-55.5 3q-8 -39 -12 -74t-4 -62q0 -113 51 -183.5t160 -70.5q90 0 165 30t116 63l49 -99q-72 -61 -169.5 -93t-195.5 -32 q-164 0 -247 94.5t-83 262.5zM301 610q78 0 162 4t152.5 21.5t113.5 55.5t45 106q0 20 -7 41.5t-23.5 39t-46 29t-74.5 11.5q-113 0 -196 -77t-126 -231zM383 1126l319 373h62l135 -373h-129l-49 136l-13 118l-69 -118l-117 -136h-139z" />
<glyph unicode="&#xeb;" horiz-adv-x="948" d="M102 332q0 168 47.5 301t124 225t174 141.5t199.5 49.5q74 0 128 -20.5t89 -54.5t51.5 -78t16.5 -93q0 -145 -141.5 -228t-411.5 -83q-25 0 -51.5 1t-55.5 3q-8 -39 -12 -74t-4 -62q0 -113 51 -183.5t160 -70.5q90 0 165 30t116 63l49 -99q-72 -61 -169.5 -93t-195.5 -32 q-164 0 -247 94.5t-83 262.5zM301 610q78 0 162 4t152.5 21.5t113.5 55.5t45 106q0 20 -7 41.5t-23.5 39t-46 29t-74.5 11.5q-113 0 -196 -77t-126 -231zM399 1337q0 45 26 75t69 30t69.5 -30t26.5 -75q0 -41 -26.5 -70.5t-69.5 -29.5t-69 29.5t-26 70.5zM774 1339 q0 43 25.5 73t68.5 30q45 0 71 -30t26 -73t-26 -72.5t-71 -29.5q-43 0 -68.5 29.5t-25.5 72.5z" />
<glyph unicode="&#xec;" horiz-adv-x="530" d="M328 1024h153l-217 -1024h-153zM254 1432l8 43h187l59 -306h-88z" />
<glyph unicode="&#xed;" horiz-adv-x="530" d="M328 1024h153l-217 -1024h-153zM362 1169l180 306h172l-10 -43l-252 -263h-90z" />
<glyph unicode="&#xee;" horiz-adv-x="530" d="M328 1024h153l-217 -1024h-153zM160 1126l319 373h62l135 -373h-129l-49 136l-13 118l-69 -118l-117 -136h-139z" />
<glyph unicode="&#xef;" horiz-adv-x="530" d="M328 1024h153l-217 -1024h-153zM184 1337q0 45 26 75t69 30t69.5 -30t26.5 -75q0 -41 -26.5 -70.5t-69.5 -29.5t-69 29.5t-26 70.5zM559 1339q0 43 25.5 73t68.5 30q45 0 71 -30t26 -73t-26 -72.5t-71 -29.5q-43 0 -68.5 29.5t-25.5 72.5z" />
<glyph unicode="&#xf0;" horiz-adv-x="1015" d="M104 319q0 141 38 271.5t107.5 232t164 161.5t209.5 60q88 0 131 -23.5t73 -57.5q2 143 -51 245l-166 -71l-45 82l160 69q-33 41 -71 68.5t-79 46.5l121 55q94 -39 156 -115l156 68l41 -84l-146 -63q33 -66 51.5 -148t18.5 -182q0 -258 -48 -439.5t-126 -297t-176.5 -169 t-198.5 -53.5q-80 0 -140.5 27t-100.5 73t-59.5 109t-19.5 135zM266 336q0 -111 47 -170.5t119 -59.5q109 0 181.5 73t116.5 177.5t61.5 221t17.5 204.5q-16 59 -68.5 94t-124.5 35q-78 0 -142 -53t-110.5 -137t-72 -185.5t-25.5 -199.5z" />
<glyph unicode="&#xf1;" horiz-adv-x="1069" d="M54 0l217 1024h106l-8 -176h8q27 33 64 68.5t83 64.5t103.5 48.5t126.5 19.5q102 0 161.5 -49.5t59.5 -172.5q0 -61 -18 -147l-146 -680h-153l137 647q8 37 14.5 73t6.5 64q0 59 -28 96.5t-103 37.5q-53 0 -104.5 -25t-96.5 -62.5t-81 -84t-61 -91.5l-135 -655h-153z M453 1343q66 68 113.5 93.5t84.5 25.5q31 0 55.5 -13t48 -28.5t47 -28t52.5 -12.5q47 0 111 50l30 -89q-59 -59 -102 -81.5t-78 -22.5q-31 0 -55.5 12.5t-48 27.5t-48 27.5t-55.5 12.5q-27 0 -57.5 -13.5t-71.5 -46.5z" />
<glyph unicode="&#xf2;" horiz-adv-x="1019" d="M102 319q0 162 42 296.5t116 230.5t171 149.5t208 53.5q86 0 146.5 -28t98.5 -76t54 -110.5t16 -129.5q0 -154 -40 -287t-110.5 -231.5t-164.5 -155t-205 -56.5q-92 0 -154.5 30t-102.5 79t-57.5 110.5t-17.5 124.5zM266 356q0 -121 45 -185.5t144 -64.5q68 0 128 48.5 t106 130.5t74 187.5t28 219.5q0 104 -38 165t-145 61q-68 0 -129 -46.5t-109 -124t-76 -179t-28 -212.5zM475 1432l8 43h187l59 -306h-88z" />
<glyph unicode="&#xf3;" horiz-adv-x="1019" d="M102 319q0 162 42 296.5t116 230.5t171 149.5t208 53.5q86 0 146.5 -28t98.5 -76t54 -110.5t16 -129.5q0 -154 -40 -287t-110.5 -231.5t-164.5 -155t-205 -56.5q-92 0 -154.5 30t-102.5 79t-57.5 110.5t-17.5 124.5zM266 356q0 -121 45 -185.5t144 -64.5q68 0 128 48.5 t106 130.5t74 187.5t28 219.5q0 104 -38 165t-145 61q-68 0 -129 -46.5t-109 -124t-76 -179t-28 -212.5zM592 1169l180 306h172l-10 -43l-252 -263h-90z" />
<glyph unicode="&#xf4;" horiz-adv-x="1019" d="M102 319q0 162 42 296.5t116 230.5t171 149.5t208 53.5q86 0 146.5 -28t98.5 -76t54 -110.5t16 -129.5q0 -154 -40 -287t-110.5 -231.5t-164.5 -155t-205 -56.5q-92 0 -154.5 30t-102.5 79t-57.5 110.5t-17.5 124.5zM266 356q0 -121 45 -185.5t144 -64.5q68 0 128 48.5 t106 130.5t74 187.5t28 219.5q0 104 -38 165t-145 61q-68 0 -129 -46.5t-109 -124t-76 -179t-28 -212.5zM383 1126l319 373h62l135 -373h-129l-49 136l-13 118l-69 -118l-117 -136h-139z" />
<glyph unicode="&#xf5;" horiz-adv-x="1019" d="M102 319q0 162 42 296.5t116 230.5t171 149.5t208 53.5q86 0 146.5 -28t98.5 -76t54 -110.5t16 -129.5q0 -154 -40 -287t-110.5 -231.5t-164.5 -155t-205 -56.5q-92 0 -154.5 30t-102.5 79t-57.5 110.5t-17.5 124.5zM266 356q0 -121 45 -185.5t144 -64.5q68 0 128 48.5 t106 130.5t74 187.5t28 219.5q0 104 -38 165t-145 61q-68 0 -129 -46.5t-109 -124t-76 -179t-28 -212.5zM402 1343q66 68 113.5 93.5t84.5 25.5q31 0 55.5 -13t48 -28.5t47 -28t52.5 -12.5q47 0 111 50l30 -89q-59 -59 -102 -81.5t-78 -22.5q-31 0 -55.5 12.5t-48 27.5 t-48 27.5t-55.5 12.5q-27 0 -57.5 -13.5t-71.5 -46.5z" />
<glyph unicode="&#xf6;" horiz-adv-x="1019" d="M102 319q0 162 42 296.5t116 230.5t171 149.5t208 53.5q86 0 146.5 -28t98.5 -76t54 -110.5t16 -129.5q0 -154 -40 -287t-110.5 -231.5t-164.5 -155t-205 -56.5q-92 0 -154.5 30t-102.5 79t-57.5 110.5t-17.5 124.5zM266 356q0 -121 45 -185.5t144 -64.5q68 0 128 48.5 t106 130.5t74 187.5t28 219.5q0 104 -38 165t-145 61q-68 0 -129 -46.5t-109 -124t-76 -179t-28 -212.5zM389 1337q0 45 26 75t69 30t69.5 -30t26.5 -75q0 -41 -26.5 -70.5t-69.5 -29.5t-69 29.5t-26 70.5zM764 1339q0 43 25.5 73t68.5 30q45 0 71 -30t26 -73t-26 -72.5 t-71 -29.5q-43 0 -68.5 29.5t-25.5 72.5z" />
<glyph unicode="&#xf7;" horiz-adv-x="983" d="M113 618v148h868v-148h-868zM455 309q0 55 32.5 87t85.5 32t86 -31.5t33 -87.5q0 -53 -32.5 -86t-86.5 -33q-53 0 -85.5 33t-32.5 86zM455 1059q0 55 32.5 87t85.5 32t86 -32t33 -87q0 -53 -32.5 -86t-86.5 -33q-53 0 -85.5 33t-32.5 86z" />
<glyph unicode="&#xf8;" horiz-adv-x="1019" d="M27 49l102 115q-27 72 -27 155q0 162 42 296.5t116 230.5t171 149.5t208 53.5q72 0 125 -19.5t92 -54.5l74 80l82 -76l-90 -102q16 -39 24 -82t8 -90q0 -154 -40 -287t-110.5 -231.5t-164.5 -155t-205 -56.5q-82 0 -140 24t-99 64l-82 -92zM266 332q0 -12 2 -25l488 545 q-43 66 -148 66q-68 0 -129 -46.5t-109 -124t-76 -179t-28 -212.5v-24zM299 188q47 -82 156 -82q68 0 128 48.5t106 130.5t74 187.5t28 219.5v21q0 10 -3 20z" />
<glyph unicode="&#xf9;" horiz-adv-x="1046" d="M123 197q0 72 20 161l140 666h153l-143 -682q-12 -55 -12 -102q0 -57 22.5 -95.5t81.5 -38.5q49 0 99.5 25t96.5 63.5t83.5 86t62.5 92.5l137 651h154l-129 -608q-8 -35 -16.5 -85t-15.5 -105.5t-11 -107.5t-4 -91v-27h-121v195h-8q-31 -41 -71 -80t-88 -70t-103.5 -50.5 t-116.5 -19.5q-45 0 -83 10.5t-66.5 36t-45 67.5t-16.5 108zM498 1432l8 43h187l59 -306h-88z" />
<glyph unicode="&#xfa;" horiz-adv-x="1046" d="M123 197q0 72 20 161l140 666h153l-143 -682q-12 -55 -12 -102q0 -57 22.5 -95.5t81.5 -38.5q49 0 99.5 25t96.5 63.5t83.5 86t62.5 92.5l137 651h154l-129 -608q-8 -35 -16.5 -85t-15.5 -105.5t-11 -107.5t-4 -91v-27h-121v195h-8q-31 -41 -71 -80t-88 -70t-103.5 -50.5 t-116.5 -19.5q-45 0 -83 10.5t-66.5 36t-45 67.5t-16.5 108zM594 1169l180 306h172l-10 -43l-252 -263h-90z" />
<glyph unicode="&#xfb;" horiz-adv-x="1046" d="M123 197q0 72 20 161l140 666h153l-143 -682q-12 -55 -12 -102q0 -57 22.5 -95.5t81.5 -38.5q49 0 99.5 25t96.5 63.5t83.5 86t62.5 92.5l137 651h154l-129 -608q-8 -35 -16.5 -85t-15.5 -105.5t-11 -107.5t-4 -91v-27h-121v195h-8q-31 -41 -71 -80t-88 -70t-103.5 -50.5 t-116.5 -19.5q-45 0 -83 10.5t-66.5 36t-45 67.5t-16.5 108zM410 1126l319 373h62l135 -373h-129l-49 136l-13 118l-69 -118l-117 -136h-139z" />
<glyph unicode="&#xfc;" horiz-adv-x="1046" d="M123 197q0 72 20 161l140 666h153l-143 -682q-12 -55 -12 -102q0 -57 22.5 -95.5t81.5 -38.5q49 0 99.5 25t96.5 63.5t83.5 86t62.5 92.5l137 651h154l-129 -608q-8 -35 -16.5 -85t-15.5 -105.5t-11 -107.5t-4 -91v-27h-121v195h-8q-31 -41 -71 -80t-88 -70t-103.5 -50.5 t-116.5 -19.5q-45 0 -83 10.5t-66.5 36t-45 67.5t-16.5 108zM430 1337q0 45 26 75t69 30t69.5 -30t26.5 -75q0 -41 -26.5 -70.5t-69.5 -29.5t-69 29.5t-26 70.5zM805 1339q0 43 25.5 73t68.5 30q45 0 71 -30t26 -73t-26 -72.5t-71 -29.5q-43 0 -68.5 29.5t-25.5 72.5z" />
<glyph unicode="&#xfd;" horiz-adv-x="899" d="M-41 -401l49 141q23 -8 49 -8q59 0 119 61.5t133 206.5l-176 1024h164l100 -664l11 -196h10l78 198l340 662h163l-483 -913l-105 -196q-52 -95 -107.5 -170t-115 -120t-122.5 -45q-35 0 -61 4.5t-46 14.5zM512 1169l180 306h172l-10 -43l-252 -263h-90z" />
<glyph unicode="&#xfe;" horiz-adv-x="1040" d="M-10 -410l395 1844h154l-127 -562h8q29 35 61.5 67t71.5 56.5t87 39t108 14.5q49 0 92 -15.5t75.5 -51.5t52 -95.5t19.5 -145.5q0 -180 -49 -322.5t-129 -240.5t-179.5 -150.5t-197.5 -52.5q-72 0 -126 13.5t-73 27.5l-90 -426h-153zM264 154q35 -27 72 -37.5t80 -10.5 q80 0 152.5 44.5t130 126t91 196.5t33.5 256q0 82 -33.5 135.5t-99.5 53.5q-55 0 -105 -29t-92 -71t-75 -90t-53 -89z" />
<glyph unicode="&#xff;" horiz-adv-x="899" d="M-41 -401l49 141q23 -8 49 -8q59 0 119 61.5t133 206.5l-176 1024h164l100 -664l11 -196h10l78 198l340 662h163l-483 -913l-105 -196q-52 -95 -107.5 -170t-115 -120t-122.5 -45q-35 0 -61 4.5t-46 14.5zM309 1337q0 45 26 75t69 30t69.5 -30t26.5 -75 q0 -41 -26.5 -70.5t-69.5 -29.5t-69 29.5t-26 70.5zM684 1339q0 43 25.5 73t68.5 30q45 0 71 -30t26 -73t-26 -72.5t-71 -29.5q-43 0 -68.5 29.5t-25.5 72.5z" />
<glyph unicode="&#x131;" horiz-adv-x="530" d="M328 1024h153l-217 -1024h-153z" />
<glyph unicode="&#x152;" horiz-adv-x="1818" d="M147 524q0 197 51.5 368t147.5 297t233.5 197.5t311.5 71.5q45 0 77.5 -1t62.5 -4t59.5 -8t70.5 -11h742l-33 -152h-578l-100 -469h528l-30 -151h-531l-106 -510h587l-30 -152h-752q-53 -12 -100 -18.5t-123 -6.5q-96 0 -184.5 27t-156 90.5t-107.5 168.5t-40 263z M319 526q0 -61 12.5 -131.5t47.5 -131t98.5 -100.5t165.5 -40q29 0 55.5 1t55 4t61.5 10t76 20l233 1108q-47 23 -104 34t-154 11q-133 0 -235.5 -64.5t-172 -173t-104.5 -250t-35 -297.5z" />
<glyph unicode="&#x153;" horiz-adv-x="1605" d="M102 319q0 162 42 296.5t116 230.5t171 149.5t208 53.5q129 0 195.5 -62.5t89.5 -163.5q70 109 170 167.5t211 58.5q74 0 128 -20.5t88.5 -54.5t51 -78t16.5 -93q0 -145 -141 -228t-412 -83q-25 0 -51.5 1t-54.5 3q-8 -39 -11.5 -74t-3.5 -62q0 -113 50.5 -183.5 t158.5 -70.5q90 0 165 30t116 63l49 -99q-72 -61 -169 -93t-195 -32q-59 0 -108.5 17.5t-87.5 47.5t-63.5 70t-37.5 85q-59 -98 -156.5 -159t-202.5 -61q-92 0 -154.5 30t-102.5 79t-57.5 110.5t-17.5 124.5zM266 356q0 -121 45 -185.5t144 -64.5q68 0 129 48.5t107 130.5 t74 187.5t28 219.5q0 104 -39 165t-146 61q-68 0 -129 -46.5t-109 -124t-76 -179t-28 -212.5zM958 610h33q66 0 142.5 4t143 21.5t111 55.5t44.5 106q0 20 -7.5 41.5t-24 39t-46 29t-74.5 11.5q-113 0 -195 -77t-127 -231z" />
<glyph unicode="&#x178;" horiz-adv-x="1087" d="M221 1434h178l183 -627l6 -125h2l61 129l445 623h184l-623 -863l-120 -571h-164l121 569zM516 1626q0 41 28.5 68.5t75.5 27.5t75 -27.5t28 -68.5t-28 -67.5t-75 -26.5t-75.5 26.5t-28.5 67.5zM891 1626q0 41 27.5 68.5t74.5 27.5t75.5 -27.5t28.5 -68.5t-28.5 -67.5 t-75.5 -26.5t-74.5 26.5t-27.5 67.5z" />
<glyph unicode="&#x2c6;" horiz-adv-x="882" d="M625 1126l319 373h62l135 -373h-129l-49 136l-13 118l-69 -118l-117 -136h-139z" />
<glyph unicode="&#x2da;" horiz-adv-x="821" d="M807 1317q0 86 54 136t145 50q86 0 143 -45t57 -141q0 -80 -57 -132t-143 -52t-142.5 48t-56.5 136zM918 1317q0 -41 27.5 -63.5t60.5 -22.5q39 0 64.5 20.5t25.5 65.5t-28 66.5t-62 21.5q-35 0 -61.5 -20.5t-26.5 -67.5z" />
<glyph unicode="&#x2dc;" horiz-adv-x="714" d="M666 1343q66 68 113.5 93.5t84.5 25.5q31 0 55.5 -13t48 -28.5t47 -28t52.5 -12.5q47 0 111 50l30 -89q-59 -59 -102 -81.5t-78 -22.5q-31 0 -55.5 12.5t-48 27.5t-48 27.5t-55.5 12.5q-27 0 -57.5 -13.5t-71.5 -46.5z" />
<glyph unicode="&#x2000;" horiz-adv-x="890" />
<glyph unicode="&#x2001;" horiz-adv-x="1781" />
<glyph unicode="&#x2002;" horiz-adv-x="890" />
<glyph unicode="&#x2003;" horiz-adv-x="1781" />
<glyph unicode="&#x2004;" horiz-adv-x="593" />
<glyph unicode="&#x2005;" horiz-adv-x="444" />
<glyph unicode="&#x2006;" horiz-adv-x="296" />
<glyph unicode="&#x2007;" horiz-adv-x="296" />
<glyph unicode="&#x2008;" horiz-adv-x="221" />
<glyph unicode="&#x2009;" horiz-adv-x="356" />
<glyph unicode="&#x200a;" horiz-adv-x="98" />
<glyph unicode="&#x2010;" horiz-adv-x="700" d="M129 520l33 139h471l-35 -139h-469z" />
<glyph unicode="&#x2011;" horiz-adv-x="700" d="M129 520l33 139h471l-35 -139h-469z" />
<glyph unicode="&#x2012;" horiz-adv-x="700" d="M129 520l33 139h471l-35 -139h-469z" />
<glyph unicode="&#x2013;" horiz-adv-x="1284" d="M231 520l33 139h826l-33 -139h-826z" />
<glyph unicode="&#x2014;" horiz-adv-x="1595" d="M231 520l33 139h1137l-33 -139h-1137z" />
<glyph unicode="&#x2018;" horiz-adv-x="380" d="M221 1288q0 70 26.5 124t63.5 92t76 59.5t64 29.5l30 -71q-47 -23 -81.5 -63t-43.5 -93q6 2 19 2q31 0 48 -24.5t17 -57.5q0 -59 -29.5 -89t-80.5 -30q-53 0 -81 37t-28 84z" />
<glyph unicode="&#x2019;" horiz-adv-x="382" d="M221 1094q47 25 82 63.5t45 93.5q-82 4 -82 97q0 25 11.5 44t28 31.5t35.5 19.5t38 7q61 0 82.5 -30.5t21.5 -88.5q0 -70 -26.5 -123t-63.5 -91t-75.5 -61.5t-63.5 -31.5z" />
<glyph unicode="&#x201a;" horiz-adv-x="387" d="M4 -153q47 25 82 63.5t45 93.5q-82 4 -82 97q0 25 11.5 44t28 31.5t35.5 19.5t38 7q61 0 82.5 -30.5t21.5 -88.5q0 -70 -26.5 -123t-63.5 -91t-75.5 -61.5t-63.5 -31.5z" />
<glyph unicode="&#x201c;" horiz-adv-x="665" d="M506 1288q0 70 26.5 124t63.5 92t76 59.5t64 29.5l30 -71q-47 -23 -81.5 -63t-43.5 -93q6 2 19 2q31 0 48 -24.5t17 -57.5q0 -59 -29.5 -89t-80.5 -30q-53 0 -81 37t-28 84zM221 1288q0 70 26.5 124t63.5 92t76 59.5t64 29.5l30 -71q-47 -23 -81.5 -63t-43.5 -93 q6 2 19 2q31 0 48 -24.5t17 -57.5q0 -59 -29.5 -89t-80.5 -30q-53 0 -81 37t-28 84z" />
<glyph unicode="&#x201d;" horiz-adv-x="665" d="M504 1094q47 25 82 63.5t45 93.5q-82 4 -82 97q0 25 11.5 44t28 31.5t35.5 19.5t38 7q61 0 82.5 -30.5t21.5 -88.5q0 -70 -26.5 -123t-63.5 -91t-75.5 -61.5t-63.5 -31.5zM221 1094q47 25 82 63.5t45 93.5q-82 4 -82 97q0 25 11.5 44t28 31.5t35.5 19.5t38 7 q61 0 82.5 -30.5t21.5 -88.5q0 -70 -26.5 -123t-63.5 -91t-75.5 -61.5t-63.5 -31.5z" />
<glyph unicode="&#x201e;" horiz-adv-x="669" d="M284 -153q47 25 82 63.5t45 93.5q-82 4 -82 97q0 25 11.5 44t28 31.5t35.5 19.5t38 7q61 0 82.5 -30.5t21.5 -88.5q0 -70 -26.5 -123t-63.5 -91t-75.5 -61.5t-63.5 -31.5zM4 -153q47 25 82 63.5t45 93.5q-82 4 -82 97q0 25 11.5 44t28 31.5t35.5 19.5t38 7 q61 0 82.5 -30.5t21.5 -88.5q0 -70 -26.5 -123t-63.5 -91t-75.5 -61.5t-63.5 -31.5z" />
<glyph unicode="&#x2022;" horiz-adv-x="925" d="M229 637q0 63 22.5 115.5t60.5 90.5t90.5 58.5t111.5 20.5t111.5 -19.5t90.5 -56.5t60.5 -89t22.5 -120t-22.5 -120t-60.5 -89t-90.5 -56.5t-111.5 -19.5t-111.5 19.5t-90.5 56.5t-60.5 89t-22.5 120z" />
<glyph unicode="&#x2026;" horiz-adv-x="1476" d="M55 94q0 55 33 87t86 32t86 -31.5t33 -87.5q0 -53 -33 -86t-86 -33t-86 33t-33 86zM549 94q0 55 32.5 87t86.5 32q53 0 85.5 -31.5t32.5 -87.5q0 -53 -32.5 -86t-85.5 -33t-86 33t-33 86zM1044 94q0 55 33 87t86 32t86 -31.5t33 -87.5q0 -53 -32.5 -86t-86.5 -33 q-53 0 -86 33t-33 86z" />
<glyph unicode="&#x202f;" horiz-adv-x="356" />
<glyph unicode="&#x2039;" horiz-adv-x="614" d="M115 530l409 471l90 -98l-252 -295l-114 -76l67 -79l140 -289l-113 -86z" />
<glyph unicode="&#x203a;" horiz-adv-x="579" d="M78 166l254 297l117 84l-72 86l-139 291l116 77l226 -452l-410 -471z" />
<glyph unicode="&#x2044;" horiz-adv-x="376" d="M688 1460l107 -74l-998 -1411l-106 74z" />
<glyph unicode="&#x205f;" horiz-adv-x="444" />
<glyph unicode="&#x2081;" horiz-adv-x="772" d="M55 -80h207l111 520l28 74l-63 -57l-166 -92l-43 94l348 211h80l-160 -750h185l-27 -125h-526z" />
<glyph unicode="&#x2082;" horiz-adv-x="772" d="M643 477q0 -66 -29.5 -132t-80 -133t-116 -129.5t-134.5 -119.5l-103 -63v-6l117 32h268l-28 -131h-564l15 68l89 66q52 40 109.5 89.5t112.5 104.5t100 111.5t73 109.5t28 100q0 94 -113 95q-53 0 -106.5 -19.5t-94.5 -44.5l-18 117q57 37 129 57.5t141 20.5 q37 0 74 -9.5t65.5 -32t47 -59.5t18.5 -92z" />
<glyph unicode="&#x2083;" horiz-adv-x="772" d="M248 -96q115 0 169 56t54 134q0 55 -32.5 83t-131.5 28h-106l8 47l237 240l78 53l-98 -13h-248l27 123h497l-14 -67l-254 -254l-53 -37l-2 -4l45 6q78 0 132 -50t54 -136q0 -66 -20.5 -126.5t-65.5 -106.5t-117.5 -72.5t-179.5 -26.5q-70 0 -118 12t-82 27l53 123 q29 -16 72 -27.5t96 -11.5z" />
<glyph unicode="&#x2084;" horiz-adv-x="772" d="M666 -8h-160l-43 -197h-131l43 197h-395l14 76l569 618h88l-121 -573h162zM455 375l34 100h-4l-63 -94l-197 -215l-78 -64l101 11h151z" />
<glyph unicode="&#x20ac;" d="M12 520l64 131h145q6 31 13.5 74t15.5 74h-176l63 131h152q53 141 129 239.5t166 163t187 95t190 30.5q98 0 166.5 -16.5t117.5 -42.5l-71 -125q-78 45 -244 45q-55 0 -121 -22.5t-131.5 -69.5t-123.5 -120t-103 -177h565l-62 -131h-544q-10 -33 -16.5 -75t-10.5 -73h498 l-62 -131h-442l-2 -8q-2 -94 16.5 -165t58 -122t105.5 -80.5t164 -29.5q66 0 130 18.5t118 46.5l28 -123q-37 -25 -79 -40t-87 -24t-88 -13.5t-79 -4.5q-111 0 -195 38t-140.5 104.5t-85 158t-30.5 207.5l2 37h-201z" />
<glyph unicode="&#x2122;" horiz-adv-x="1814" d="M184 1294v140h717v-140h-278v-598h-160v598h-279zM983 696v738h160l215 -344l57 -119h2l62 123l198 340h162v-738h-156v342l21 211h-8l-80 -174l-178 -287h-68l-182 285l-74 176h-8l27 -209v-344h-150z" />
<glyph unicode="&#xe000;" horiz-adv-x="1025" d="M0 1025h1025v-1025h-1025v1025z" />
<glyph unicode="&#xf408;" horiz-adv-x="882" d="M915 1782h99l203 -209l-9 -43h-139l-94 100l-21 72l-51 -70l-145 -102h-154l10 45z" />
<glyph unicode="&#xf40d;" horiz-adv-x="714" d="M530 1608q72 66 128.5 89t103.5 23q37 0 68.5 -10t61.5 -23.5t58.5 -23.5t59.5 -10q51 0 108 43l33 -88q-66 -53 -116 -71.5t-91 -18.5q-37 0 -67.5 10t-60.5 23.5t-58.5 23.5t-59.5 10t-64.5 -13t-74.5 -48z" />
<glyph unicode="&#xf662;" horiz-adv-x="772" d="M522 1219l31 73l-64 -57l-165 -92l-50 100l355 205h80l-187 -875h-135z" />
<glyph unicode="&#xf6c9;" horiz-adv-x="487" d="M893 1782h237l-10 -43l-358 -199h-150z" />
<glyph unicode="&#xf6cb;" horiz-adv-x="495" d="M375 1626q0 41 28.5 68.5t75.5 27.5t75 -27.5t28 -68.5t-28 -67.5t-75 -26.5t-75.5 26.5t-28.5 67.5zM750 1626q0 41 27.5 68.5t74.5 27.5t75.5 -27.5t28.5 -68.5t-28.5 -67.5t-75.5 -26.5t-74.5 26.5t-27.5 67.5z" />
<glyph unicode="&#xf6ce;" horiz-adv-x="487" d="M881 1540h-129l-265 199l9 43h206z" />
<glyph unicode="&#xfb01;" horiz-adv-x="1050" d="M-233 -385l45 115q41 -14 74.5 -19.5t82.5 -5.5q78 0 117 81t61 214l148 893h-152l27 131h152q25 123 64.5 205t96 131t128 68.5t157.5 19.5q117 0 200 -24.5t126 -55.5l-66 -117q-47 35 -120.5 50.5t-155.5 15.5q-72 0 -118 -20.5t-77 -58.5t-49.5 -92t-32.5 -122h512 l-172 -1024h-153l147 893h-360l-148 -893q-18 -113 -43 -192.5t-61.5 -132t-90 -77t-129.5 -24.5q-61 0 -113 9t-97 32z" />
<glyph unicode="&#xfb02;" horiz-adv-x="1118" d="M-233 -385l45 115q41 -14 74.5 -19.5t82.5 -5.5q78 0 117 81t61 214l132 893h-152l27 131h151q23 121 59.5 204t90 134t124 73.5t162.5 22.5q39 0 87.5 -3t96.5 -8t90 -11t68 -15l-190 -1171q-6 -35 -6 -57q0 -80 67 -80q27 0 56.5 5t70.5 17l-8 -115q-18 -8 -42.5 -15 t-51.5 -12t-52.5 -8t-43.5 -3q-74 0 -117 32.5t-43 112.5q0 8 1 19.5t6 48t16 109.5l32 202l51 324l76 479q-29 6 -82 12t-106 6q-66 0 -109 -21.5t-71.5 -61.5t-46 -96t-31.5 -124h203l-27 -131h-203l-131 -893q-16 -113 -39.5 -192.5t-61.5 -132t-92.5 -77t-130.5 -24.5 q-61 0 -113 9t-97 32z" />
<glyph unicode="&#xfb03;" horiz-adv-x="1669" d="M1250 0l217 1024h153l-217 -1024h-153zM1499 1337q0 47 32 80t79 33t80 -33t33 -80t-33 -78.5t-80 -31.5t-79 31.5t-32 78.5zM336 -385l45 115q41 -14 74.5 -19.5t82.5 -5.5q78 0 117 75t66 236l143 877h-158l27 131h149l27 137q14 76 34.5 131.5t54.5 92t84 55t122 18.5 q68 0 131 -13t115 -36l-45 -121q-100 39 -191 39q-76 0 -110.5 -52t-53.5 -167l-14 -84h207l-25 -131h-200l-164 -963q-12 -76 -34 -140t-56.5 -112.5t-88 -76t-129.5 -27.5q-61 0 -113 9t-97 32zM-233 -385l45 115q41 -14 74.5 -19.5t82.5 -5.5q78 0 117 75t66 236l143 877 h-158l27 131h149l27 137q14 76 34.5 131.5t54.5 92t84 55t122 18.5q68 0 131 -13t115 -36l-45 -121q-100 39 -191 39q-76 0 -110.5 -52t-53.5 -167l-14 -84h207l-25 -131h-200l-164 -963q-12 -76 -34 -140t-56.5 -112.5t-88 -76t-129.5 -27.5q-61 0 -113 9t-97 32z" />
<glyph unicode="&#xfb04;" horiz-adv-x="1691" d="M1241 135q0 41 13 101l254 1198h153l-250 -1190q-6 -35 -6 -58q0 -39 13.5 -56t35.5 -17q41 0 69 5t67 19v-117q-18 -10 -43 -17t-50.5 -11t-51 -7t-46.5 -3q-72 0 -115 32.5t-43 120.5zM336 -385l45 115q41 -14 74.5 -19.5t82.5 -5.5q78 0 117 75t66 236l143 877h-158 l27 131h149l27 137q14 76 34.5 131.5t54.5 92t84 55t122 18.5q68 0 131 -13t115 -36l-45 -121q-100 39 -191 39q-76 0 -110.5 -52t-53.5 -167l-14 -84h207l-25 -131h-200l-164 -963q-12 -76 -34 -140t-56.5 -112.5t-88 -76t-129.5 -27.5q-61 0 -113 9t-97 32zM-233 -385 l45 115q41 -14 74.5 -19.5t82.5 -5.5q78 0 117 75t66 236l143 877h-158l27 131h149l27 137q14 76 34.5 131.5t54.5 92t84 55t122 18.5q68 0 131 -13t115 -36l-45 -121q-100 39 -191 39q-76 0 -110.5 -52t-53.5 -167l-14 -84h207l-25 -131h-200l-164 -963q-12 -76 -34 -140 t-56.5 -112.5t-88 -76t-129.5 -27.5q-61 0 -113 9t-97 32z" />
<glyph horiz-adv-x="376" d="M662 1460l102 -80l-1051 -1405l-102 80z" />
</font>
</defs>
</svg>
